Пираты Карибского моря: На краю Света / Pirates of the Caribbean: At World\'s End (Гор Вербински / Gore Verbinski) [2007, США, фэнтези, боевик, приключения, BDRip] Dub CEE

 
Автор Сообщение

painkiller ®

Стаж: 2 года 3 месяца

Сообщений: 582



Награды: Нет

Торрент-статистика

Создавать темы 15-Авг-2014 10:17

[Цитировать]

Пираты Карибского моря: На краю Света / Pirates of the Caribbean: At World's End
«At the End of the World, the Adventure Begins»
- Страна: США / Walt Disney Pictures, Jerry Bruckheimer Films, Second Mate Productions
Жанр: фэнтези, боевик, приключения
Год выпуска: 2007
Продолжительность: 02:48:30
Перевод: Профессиональный (дублированный) лицензия CEE
Cубтитры: нет
Режиссёр: Гор Вербински / Gore Verbinski
В ролях: Джонни Депп, Джеффри Раш, Орландо Блум, Кира Найтли, Том Холландер, Билл Найи, Стеллан Скарсгард, Наоми Харрис, Джек Девенпорт, Чоу Юнь-Фат, Джонатан Прайс, Кит Ричардс, Ли Аренберг, Макензи Крук, Кевин МакНэлли.
Описание: Золотой век карибских пиратов на исходе - армада, подчиняющаяся Ост-Индской Компании, во главе с "Летучим Голландцем" и его дьявольским капитаном Дэви Джонсом, без суда и следствия уничтожают вольных разбойников на морских просторах от Багам до Тринидада. Уилл Тернер, Элизабет Сван и капитан Барбосса предпринимают отчаянное путешествие через пол-мира в далекий Сингапур, чтобы сразиться с предводителем китайских пиратов, капитаном Сао Фенгом, заручиться поддержкой могущественного Братства Девяти Лордов, вернуть "Черную жемчужину" из морской пучины и вырвать Джека Воробья из плена Дэви Джонса...-Рейтинг
imdb.com: 7.10 (342 750)
kinopoisk.ru: 8.090 (139 852)
MPAA: - детям до 13 лет просмотр не желателен-Сэмпл: http://multi-up.com/959402-Качество видео: BDRip
Формат видео: AVI
Видео: XviD build 65, 720x304 (2.37:1), 23.976 fps, ~1460 kbps avg, 0.278 bit/pixel
Аудио: 48 kHz, AC3 Dolby Digital, 3/2 (L,C,R,l,r) + LFE ch, ~384 kbps avg (Dub)
-

MediaInfo

Общее
Полное имя : D:\Pirates.of.the.Caribbean.At.World's.End.2007.Dub.BDRip.2,18Gb.XviD.AC3.avi
Формат : AVI
Формат/Информация : Audio Video Interleave
Профиль формата : OpenDML
Размер файла : 2,18 Гбайт
Продолжительность : 2 ч. 48 м.
Общий поток : 1856 Кбит/сек
Название фильма : Pirates of the Caribbean At World's End 2007
Режиссёр : Gore Verbinski
Дата записи : 16.03.2014
Программа кодирования : VirtualDubModRus 1.5.10.2 (build 2542/release)
Библиотека кодирования : VirtualDubMod build 2542/release
Правообладатель : Rutracker.org
Примечание : MooN_WalkeR
Видео
Идентификатор : 0
Формат : MPEG-4 Visual
Профиль формата : Advanced Simple@L5
Параметр BVOP формата : 1
Параметр QPel формата : Нет
Параметр GMC формата : Без точки перехода
Параметр матрицы формата : Выборочная
Идентификатор кодека : XVID
Идентификатор кодека/Подсказка : XviD
Продолжительность : 2 ч. 48 м.
Битрейт : 1460 Кбит/сек
Ширина : 720 пикселей
Высота : 304 пикселя
Соотношение сторон : 2,35:1
Частота кадров : 23,976 кадра/сек
Цветовое пространство : YUV
Субдискретизация насыщенности : 4:2:0
Битовая глубина : 8 бит
Тип развёртки : Прогрессивная
Метод сжатия : С потерями
Бит/(Пиксели*Кадры) : 0.278
Размер потока : 1,72 Гбайт (79%)
Библиотека кодирования : XviD 65
Аудио
Идентификатор : 1
Формат : AC-3
Формат/Информация : Audio Coding 3
Расширение режима : CM (complete main)
Идентификатор кодека : 2000
Продолжительность : 2 ч. 48 м.
Вид битрейта : Постоянный
Битрейт : 384 Кбит/сек
Каналы : 6 каналов
Расположение каналов : Front: L C R, Side: L R, LFE
Частота : 48,0 КГц
Битовая глубина : 16 бит
Метод сжатия : С потерями
Размер потока : 463 Мбайт (21%)
Выравнивание : Разделение по промежуткам
Продолжительность промежутка : 42 мс. (1,00 видеокадр)
Время предзагрузки промежутка : 500 мс.
Заголовок : Dub CEE
[Профиль] [ЛС]

Создавать темы 06-Авг-2015 23:10 (спустя 11 месяцев 22 дня)

Топик был перенесен из форума Фильмы до 2014 года в форум Фильмы до 2012 года
sergej644
 
Показать сообщения:    

Текущее время: Сегодня 16:34

Часовой пояс: GMT



Вы не можете начинать темы
Вы не можете отвечать на сообщения
Вы не можете редактировать свои сообщения
Вы не можете удалять свои сообщения
Вы не можете голосовать в опросах
Вы не можете прикреплять файлы к сообщениям
Вы не можете скачивать файлы