Пираты Карибского моря: Мертвецы не рассказывают сказки / Pirates of the Caribbean: Dead Men Tell No Tales (2017) BDRip 720p | Лицензия

 
Автор Сообщение

BOSS ®

Пол:

Стаж: 3 года 1 месяц

Сообщений: 8254

Откуда: ODESSA



Награды: 22 (Подробнее)

Top Keeper 2 (Количество: 1) Top Seeder 4 (Количество: 1) Mega Releaser 3 (Количество: 1)
Торрент-статистика

Создавать темы 13-Сен-2017 06:45

[Цитировать]

Информация о фильме
Название: Пираты Карибского моря: Мертвецы не рассказывают сказки
Оригинальное название: Pirates of the Caribbean: Dead Men Tell No Tales
Год выхода: 2017
Жанр: Фэнтези, боевик, комедия, приключения
Режиссер: Хоаким Роннинг, Эспен Сандберг
В ролях: Джонни Депп, Кира Найтли, Кая Скоделарио, Дэвид Уэнэм, Орландо Блум, Джеффри Раш, Брентон Туэйтс, Хавьер Бардем, Голшифте Фарахани, Стивен Грэм
О фильме: Исчерпавший свою удачу капитан Джек Воробей обнаруживает, что за ним охотится его старый неприятель, ужасный капитан Салазар и его призрачные пираты. Они только что сбежали из Дьявольского треугольника и намерены уничтожить всех пиратов, включая Джека. Поможет спастись лишь могущественный артефакт — трезубец Посейдона, который дарует своему обладателю полный контроль над морями.


Выпущено: США / Walt Disney Pictures
Продолжительность: 02:09:07
Перевод: Дублированный [Лицензия]
Файл
Формат: MKV
Качество: BDRip 720p
Видео: MPEG-4 AVC, 5904 kb/s, 1280x534
Аудио: Russian: / English: AC3, 640 kb/s (6 ch)
Субтитры: Russian (Forced, Full), English (Full, SDH)

MI

x264 [info]: frame I:1539 Avg QP:16.52 size:106916
x264 [info]: frame P:48327 Avg QP:17.30 size: 53523
x264 [info]: frame B:135882 Avg QP:18.54 size: 22023
x264 [info]: consecutive B-frames: 3.7% 6.3% 12.5% 29.4% 17.1% 27.2% 2.5% 0.5% 0.4% 0.3% 0.2%
============================================
Общее
Уникальный идентификатор : 199811183199808939754189993074582424796 (0x96523BEDA2F330EDB6F21D8AB1AD0CDC)
Полное имя : 2Pirates.of.the.Caribbean.Dead.Men.Tell.No.Tales.2017.D.BDRip.720p.mkv
Формат : Matroska
Версия формата : Version 2
Размер файла : 6,48 Гбайт
Продолжительность : 2 ч. 9 м.
Общий поток : 7187 Кбит/сек
Дата кодирования : UTC 2017-09-13 03:37:08
Программа кодирования : mkvmerge v7.8.0 ('River Man') 32bit built on Apr 3 2015 12:11:22
Библиотека кодирования : libebml v1.3.1 + libmatroska v1.4.2
Видео
Идентификатор : 1
Формат : AVC
Формат/Информация : Advanced Video Codec
Профиль формата : High@L4.1
Параметр CABAC формата : Да
Параметр ReFrames формата : 12 кадров
Идентификатор кодека : V_MPEG4/ISO/AVC
Продолжительность : 2 ч. 9 м.
Битрейт : 5904 Кбит/сек
Ширина : 1280 пикселей
Высота : 534 пикселя
Соотношение сторон : 2,40:1
Режим частоты кадров : Постоянный
Частота кадров : 23,976 (24000/1001) кадра/сек
Цветовое пространство : YUV
Субдискретизация насыщенности : 4:2:0
Битовая глубина : 8 бит
Тип развёртки : Прогрессивная
Бит/(Пиксели*Кадры) : 0.360
Размер потока : 5,20 Гбайт (80%)
Библиотека кодирования : x264 core 152 r2851 ba24899
Настройки программы : cabac=1 / ref=12 / deblock=1:-3:-3 / analyse=0x3:0x113 / me=umh / subme=11 / psy=1 / psy_rd=1.00:0.00 / mixed_ref=1 / me_range=32 / chroma_me=1 / trellis=2 / 8x8dct=1 / cqm=0 / deadzone=21,11 / fast_pskip=0 / chroma_qp_offset=-2 / threads=12 / lookahead_threads=3 / sliced_threads=0 / nr=0 / decimate=0 / interlaced=0 / bluray_compat=0 / constrained_intra=0 / bframes=10 / b_pyramid=2 / b_adapt=2 / b_bias=0 / direct=3 / weightb=1 / open_gop=1 / weightp=2 / keyint=240 / keyint_min=23 / scenecut=40 / intra_refresh=0 / rc_lookahead=40 / rc=2pass / mbtree=0 / bitrate=5904 / ratetol=1.0 / qcomp=0.60 / qpmin=0 / qpmax=69 / qpstep=4 / cplxblur=20.0 / qblur=0.5 / vbv_maxrate=50000 / vbv_bufsize=62500 / nal_hrd=none / filler=0 / ip_ratio=1.30 / pb_ratio=1.20 / aq=3:0.80
Язык : English
Default : Да
Forced : Нет
Аудио #1
Идентификатор : 2
Формат : AC-3
Формат/Информация : Audio Coding 3
Параметр Endianness формата : Big
Идентификатор кодека : A_AC3
Продолжительность : 2 ч. 9 м.
Вид битрейта : Постоянный
Битрейт : 640 Кбит/сек
Каналы : 6 каналов
Расположение каналов : Front: L C R, Side: L R, LFE
Частота : 48,0 КГц
Частота кадров : 31,250 кадров/сек (1536 spf)
Битовая глубина : 16 бит
Метод сжатия : С потерями
Размер потока : 591 Мбайт (9%)
Заголовок : Blu-ray EUR
Язык : Russian
Default : Да
Forced : Нет
Аудио #2
Идентификатор : 3
Формат : AC-3
Формат/Информация : Audio Coding 3
Параметр Endianness формата : Big
Идентификатор кодека : A_AC3
Продолжительность : 2 ч. 9 м.
Вид битрейта : Постоянный
Битрейт : 640 Кбит/сек
Каналы : 6 каналов
Расположение каналов : Front: L C R, Side: L R, LFE
Частота : 48,0 КГц
Частота кадров : 31,250 кадров/сек (1536 spf)
Битовая глубина : 16 бит
Метод сжатия : С потерями
Размер потока : 591 Мбайт (9%)
Заголовок : Original
Язык : English
Default : Нет
Forced : Нет
Текст #1
Идентификатор : 4
Формат : UTF-8
Идентификатор кодека : S_TEXT/UTF8
Идентификатор кодека/Информация : UTF-8 Plain Text
Заголовок : Forced
Язык : Russian
Default : Да
Forced : Нет
Текст #2
Идентификатор : 5
Формат : UTF-8
Идентификатор кодека : S_TEXT/UTF8
Идентификатор кодека/Информация : UTF-8 Plain Text
Заголовок : Full
Язык : Russian
Default : Нет
Forced : Нет
Текст #3
Идентификатор : 6
Формат : UTF-8
Идентификатор кодека : S_TEXT/UTF8
Идентификатор кодека/Информация : UTF-8 Plain Text
Заголовок : Full
Язык : English
Default : Нет
Forced : Нет
Текст #4
Идентификатор : 7
Формат : UTF-8
Идентификатор кодека : S_TEXT/UTF8
Идентификатор кодека/Информация : UTF-8 Plain Text
Заголовок : SDH
Язык : English
Default : Нет
Forced : Нет
Меню
00:00:00.000 : en:Chapter 01
00:05:49.515 : en:Chapter 02
00:08:34.222 : en:Chapter 03
00:13:40.820 : en:Chapter 04
00:16:29.154 : en:Chapter 05
00:22:33.852 : en:Chapter 06
00:25:19.267 : en:Chapter 07
00:28:06.101 : en:Chapter 08
00:31:41.774 : en:Chapter 09
00:33:44.814 : en:Chapter 10
00:37:02.053 : en:Chapter 11
00:42:27.711 : en:Chapter 12
00:49:09.071 : en:Chapter 13
00:54:00.278 : en:Chapter 14
00:57:19.394 : en:Chapter 15
01:00:38.718 : en:Chapter 16
01:08:29.939 : en:Chapter 17
01:11:57.021 : en:Chapter 18
01:16:50.939 : en:Chapter 19
01:19:27.471 : en:Chapter 20
01:25:04.808 : en:Chapter 21
01:27:42.173 : en:Chapter 22
01:31:43.789 : en:Chapter 23
01:38:22.813 : en:Chapter 24
01:42:36.775 : en:Chapter 25
01:47:23.562 : en:Chapter 26
01:52:58.688 : en:Chapter 27
01:59:09.934 : en:Chapter 28
02:09:06.989 : en:Chapter 29

Скриншоты



[Профиль] [ЛС]
Кто просматривает тему:

Форум Тема Автор Размер
Rock (Рок) Мумий Тролль - Пиратские копии - 2015, MP3, 320 kbps достали все 153 MB
BBC BBC: Преступники Британии. Разбойники с большой дороги, пираты и мошенники / Britain's Outlaws. Highwaymen, Pirates and Rogues [серии 1-3 из 3] (Andy Hall, Matthew Thomas, Gerry Dawson) [201... skorpionN 5.42 GB
Горячие Новинки Halcyon 6: Starbase Commander (2016) PC | Пиратка Barbaq 326 MB
Demo, Alpha, Beta версии Life is Feudal: Forest Village [v0.9.4233] (2016) PC | Early Access | Пиратка Barbaq 215 MB
National Geographic NG: Осушить океан: затонувший город пиратов / Drain the Sunken Pirate City (Sophie Elwin Harris) [2017 г., Документальный, история, исследования, HDTVRip-AVC 720p] skorpionN 1.5 GB
История, биографии, религия и искусство Борис Воробьев – Пиратские хроники (2016) MP3 Swager 534 MB
Путешествия и приключения Даниэль Дефо - Всеобщая история пиратов (2015) MP3 Swager 342 MB
Фильмы 2014 года Драконы Нью-Йорка / Revenge of the Green Dragons (Вэй Кеунг Лау / Wai-Keung Lau, Эндрю Лу / Andrew Loo) [2014, США, Гонконг, боевик, драма, криминал, HDRip] MVO (Студия Пиратского дубляжа) TorrentFilm 1.37 GB
Показать сообщения:    

Текущее время: Сегодня 20:32

Часовой пояс: GMT



Вы не можете начинать темы
Вы не можете отвечать на сообщения
Вы не можете редактировать свои сообщения
Вы не можете удалять свои сообщения
Вы не можете голосовать в опросах
Вы не можете прикреплять файлы к сообщениям
Вы не можете скачивать файлы