Пираты Карибского моря: Мертвецы не рассказывают сказки / Pirates of the Caribbean: Dead Men Tell No Tales (2017) WEB-DL 1080p | D | Звук с TS

 
Автор Сообщение

BOSS ®

Пол:

Стаж: 2 года 11 месяцев

Сообщений: 7114

Откуда: ODESSA



Награды: 20 (Подробнее)

Top Seeder 4 (Количество: 1) За внесенный вклад в развитие сайта (Количество: 1) Mega Releaser 2 (Количество: 1)
Торрент-статистика

Создавать темы 07-Сен-2017 10:38

[Цитировать]

Информация о фильме
Название: Пираты Карибского моря: Мертвецы не рассказывают сказки
Оригинальное название: Pirates of the Caribbean: Dead Men Tell No Tales
Год выхода: 2017
Жанр: фэнтези, боевик, комедия, приключения
Режиссер: Хоаким Роннинг, Эспен Сандберг
В ролях: Джонни Депп, Хавьер Бардем, Джеффри Раш, Брентон Туэйтс, Кая Скоделарио, Кевин МакНэлли, Голшифте Фарахани, Дэвид Уэнэм, Стивен Грэм, Энгус Барнетт
О фильме:
Исчерпавший свою удачу капитан Джек Воробей обнаруживает, что за ним охотится его старый неприятель, ужасный капитан Салазар и его призрачные пираты. Они только что сбежали из Дьявольского треугольника и намерены уничтожить всех пиратов, включая Джека. Поможет спастись лишь могущественный артефакт — трезубец Посейдона, который дарует своему обладателю полный контроль над морями.

Страна: США
Студия: Infinitum Nihil Production, Jerry Bruckheimer Films, Walt Disney Pictures
Продолжительность: 01:58:43
Перевод: Дублированный [Звук TS]
Благодарность DENZEL519 за дорожку без рекламы
Файл
Кодек: H.264
Качество: WEB-DL 1080p
Видео: AVC, 1920x800 (2.40 :1), 23.976 fps ~ 4550 Kbps
Звук:
AC3, 48 KHz, 2 ch ~ 192 Kb/s (русский)
AC3, 48 KHz, 6 ch ~ 384 Kb/s (английский)
Субтитры: отсутствуют

MI:

Общее
Уникальный идентификатор : 222206220466536925283142173108859148922 (0xA72B5C83914B20FA894A1DE24DD59A7A)
Полное имя : Q:TorFPirates.of.the.Caribbean.Dead.Men.Tell.No.Tales.2017.WEB-DL.1080p.mkv
Формат : Matroska
Версия формата : Version 2
Размер файла : 4,34 Гбайт
Продолжительность : 1 ч. 58 м.
Общий поток : 5232 Кбит/сек
Название фильма : Pirates.of.the.Caribbean.Dead.Men.Tell.No.Tales.2017.1080p.WEB-DL
Дата кодирования : UTC 2017-09-06 19:32:22
Программа кодирования : mkvmerge v5.4.0 ('Piper') built on Mar 10 2012 13:34:39
Библиотека кодирования : libebml v1.2.3 + libmatroska v1.3.0
Attachment : Yes / Yes / Yes / Yes
Видео
Идентификатор : 1
Формат : AVC
Формат/Информация : Advanced Video Codec
Профиль формата : High@L4.0
Параметр CABAC формата : Да
Параметр ReFrames формата : 5 кадров
Идентификатор кодека : V_MPEG4/ISO/AVC
Продолжительность : 1 ч. 58 м.
Битрейт : 4552 Кбит/сек
Ширина : 1920 пикселей
Высота : 800 пикселей
Соотношение сторон : 2,40:1
Частота кадров : 23,976 кадра/сек
Цветовое пространство : YUV
Субдискретизация насыщенности : 4:2:0
Битовая глубина : 8 бит
Тип развёртки : Прогрессивная
Бит/(Пиксели*Кадры) : 0.124
Размер потока : 3,77 Гбайт (87%)
Заголовок : Pirates.of.the.Caribbean.Dead.Men.Tell.No.Tales.2017
Язык : English
Default : Да
Forced : Нет
Основные цвета : BT.709-5, BT.1361, IEC 61966-2-4, SMPTE RP177
Характеристики трансфера : BT.709-5, BT.1361
Коэффициенты матрицы : BT.709-5, BT.1361, IEC 61966-2-4 709, SMPTE RP177
Аудио #1
Идентификатор : 2
Формат : AC-3
Формат/Информация : Audio Coding 3
Расширение режима : CM (complete main)
Идентификатор кодека : A_AC3
Продолжительность : 1 ч. 58 м.
Вид битрейта : Постоянный
Битрейт : 192 Кбит/сек
Каналы : 2 канала
Расположение каналов : Front: L R
Частота : 48,0 КГц
Битовая глубина : 16 бит
Метод сжатия : С потерями
Задержка видео : 12 мс.
Размер потока : 163 Мбайт (4%)
Заголовок : DUB [TS]
Язык : Russian
Default : Да
Forced : Нет
Аудио #2
Идентификатор : 3
Формат : AC-3
Формат/Информация : Audio Coding 3
Расширение режима : CM (complete main)
Идентификатор кодека : A_AC3
Продолжительность : 1 ч. 58 м.
Вид битрейта : Постоянный
Битрейт : 384 Кбит/сек
Каналы : 6 каналов
Расположение каналов : Front: L C R, Side: L R, LFE
Частота : 48,0 КГц
Битовая глубина : 16 бит
Метод сжатия : С потерями
Задержка видео : 10 мс.
Размер потока : 326 Мбайт (7%)
Заголовок : Pirates.of.the.Caribbean.Dead.Men.Tell.No.Tales.2017
Язык : English
Default : Нет
Forced : Нет
Меню #1
00:00:00.000 : en:Father's Curse
00:05:00.826 : en:"Arrest Him"
00:07:44.826 : en:Captain Salazar
Меню #2
00:07:49.900 : en:Captain Salazar
00:12:50.840 : en:"Stop That Witch"
Меню #3
00:12:51.374 : en:"Stop That Witch"
00:15:40.346 : en:Runaway Bank
Меню #4
00:18:14.556 : en:Runaway Bank
00:21:46.373 : en:Bad Luck
Меню #5
00:24:31.871 : en:Bad Luck
00:24:32.396 : en:"Hidden In The Stars"
00:27:19.396 : en:"We Are Free"
Меню #6
00:29:34.810 : en:"We Are Free"
00:30:56.117 : en:Blood Moon
00:32:59.117 : en:"Looking For A Pirate"
00:36:17.117 : en:Barbossa's Treasure
Меню #7
00:36:21.151 : en:Barbossa's Treasure
00:41:44.138 : en:"Final Words"
Меню #8
00:42:36.964 : en:"Final Words"
00:48:28.160 : en:"Cordiality"
Меню #9
00:49:43.390 : en:"Cordiality"
00:53:21.663 : en:Bluffing
Меню #10
00:53:27.089 : en:Bluffing
00:56:43.475 : en:"Closer Than You Think"
01:00:02.475 : en:Salazar's Story
Меню #11
01:00:07.061 : en:Salazar's Story
Меню #12
01:07:25.607 : en:Salazar's Story
01:07:55.030 : en:Mutiny
01:11:22.030 : en:Ghost Sharks
Меню #13
01:11:48.558 : en:Ghost Sharks
Меню #14
01:15:49.207 : en:Ghost Sharks
01:16:17.671 : en:"Unscratchable Itch"
01:18:53.671 : en:Wedding Day
Меню #15
01:22:46.061 : en:Wedding Day
01:24:31.401 : en:"Just Believe Her"
01:27:09.401 : en:"So You're An Orphan"
Меню #16
01:29:16.151 : en:"So You're An Orphan"
01:31:11.519 : en:"Nowhere To Hide"
Меню #17
01:37:11.085 : en:"Nowhere To Hide"
01:37:51.020 : en:The Island
01:42:05.020 : en:Poseidon's Trident
Меню #18
01:42:09.686 : en:Poseidon's Trident
01:46:53.032 : en:"All Must Divide"
Меню #19
01:47:56.590 : en:"All Must Divide"
01:52:29.133 : en:"Let Me Tell You A Tale"
Меню #20
01:53:50.741 : en:"Let Me Tell You A Tale"
Семпл

Скриншоты

[Профиль] [ЛС]
Кто просматривает тему:

Форум Тема Автор Размер
Rock (Рок) Мумий Тролль - Пиратские копии - 2015, MP3, 320 kbps достали все 153 MB
BBC BBC: Преступники Британии. Разбойники с большой дороги, пираты и мошенники / Britain's Outlaws. Highwaymen, Pirates and Rogues [серии 1-3 из 3] (Andy Hall, Matthew Thomas, Gerry Dawson) [201... skorpionN 5.42 GB
Demo, Alpha, Beta версии Life is Feudal: Forest Village [v0.9.4233] (2016) PC | Early Access | Пиратка Barbaq 215 MB
National Geographic NG: Осушить океан: затонувший город пиратов / Drain the Sunken Pirate City (Sophie Elwin Harris) [2017 г., Документальный, история, исследования, HDTVRip-AVC 720p] skorpionN 1.5 GB
История, биографии, религия и искусство Борис Воробьев – Пиратские хроники (2016) MP3 Swager 534 MB
Путешествия и приключения Даниэль Дефо - Всеобщая история пиратов (2015) MP3 Swager 342 MB
Фильмы 2014 года Драконы Нью-Йорка / Revenge of the Green Dragons (Вэй Кеунг Лау / Wai-Keung Lau, Эндрю Лу / Andrew Loo) [2014, США, Гонконг, боевик, драма, криминал, HDRip] MVO (Студия Пиратского дубляжа) TorrentFilm 1.37 GB
Отечественные мультфильмы Журнал Союзмультфильма № 2 / Чего Гитлер хочет / Бей фашистских пиратов / Бей врага на фронте и в тылу / Крепкое рукопожатие (Зинаида Брумберг, Александр Иванов, Валентина Брумберг, Ольга Ходатаева... TorrentFilm 139 MB
Показать сообщения:    

Текущее время: Сегодня 01:44

Часовой пояс: GMT



Вы не можете начинать темы
Вы не можете отвечать на сообщения
Вы не можете редактировать свои сообщения
Вы не можете удалять свои сообщения
Вы не можете голосовать в опросах
Вы не можете прикреплять файлы к сообщениям
Вы не можете скачивать файлы