Пираты Карибского моря: Квадрология / Pirates of the Caribbean Sea: Quadrilogy (2003 - 2011) BDRip-AVC | 60 fps

 
Автор Сообщение

Russian Mafia ®

Пол:

Стаж: 1 год 8 месяцев

Сообщений: 4257



Награды: 10 (Подробнее)

Top Releaser 2 (Количество: 1) Top Releaser 5 (Количество: 1) За внесенный вклад в развитие сайта (Количество: 1)
Торрент-статистика

Создавать темы 22-Авг-2015 11:41

[Цитировать]

Пираты Карибского моря: Проклятие Черной жемчужины

-Название: Пираты Карибского моря: Проклятие Черной жемчужины
Оригинальное название: Pirates of the Caribbean: The Curse of the Black Pearl
Год выпуска: 2003
Страна: США
Жанр: фэнтези, боевик, приключения
Продолжительность: 02:23:14
Перевод: Дубляж
Субтитры: Русские ,английские-Режиссер: Гор Вербински / Gore Verbinski-В ролях: Джонни Депп (Jack Sparrow), Джеффри Раш (Barbossa), Орландо Блум (Will Turner), Кира Найтли (Elizabeth Swann), Джек Девенпорт (Norrington), Кевин МакНэлли (Joshamee Gibbs), Джонатан Прайс (Governor Weatherby Swann), Ли Аренберг (Pintel), Макензи Крук (Ragetti), Дэвид Бэйли (Cotton), Дэмиан О’Хейр (Lt. Gillette), Джиллз Нью (Murtogg)-Описание:
Жизнь харизматичного авантюриста, капитана Джека Воробья, полная увлекательных приключений, резко меняется, когда его заклятый враг - капитан Барбосса - похищает корабль Джека, Черную Жемчужину, а затем нападает на Порт Ройал и крадет прекрасную дочь губернатора, Элизабет Свонн.
Друг детства Элизабет, Уилл Тернер, вместе с Джеком возглавляет спасательную экспедицию на самом быстром корабле Британии, в попытке вызволить девушку из плена и заодно отобрать у злодея Черную Жемчужину. Вслед за этой парочкой отправляется амбициозный коммодор Норрингтон, который к тому же числится женихом Элизабет.
Однако Уилл не знает, что над Барбоссой висит вечное проклятие, при лунном свете превращающее его с командой в живых скелетов. Проклятье будет снято лишь тогда, когда украденное золото Ацтеков будет возвращено пиратами на старое место.-Рейтинг

imdb.com: 8.10 (718 105)
MPAA: PG-13 - Детям до 13 лет просмотр не желателен-Качество: BDRip-AVC / 60fps
Формат: MKV
Видео кодек: AVC
Аудио кодек: AC3
Видео: AVC, 1024x424 (2.40:1), 3553 kbps, 59,940 fps, 0,137 bpp
Аудио: Русский / AC3 / 5.1 / 48 kHz / 384 kbps / 16 bit
Навигация по главам: есть- -MI
General
Unique ID : 193438296807454180717331101657153603121 (0x9186DC5EC87453AE8DD1A5F12CC30631)
Complete name : E:КодировкаРаздачаПираты карибского моря 1-4Пираты Карибского Моря Проклятье Чёрной Жемчужины - 60fps.mkv
Format : Matroska
Format version : Version 4 / Version 2
File size : 3.94 GiB
Duration : 2h 23mn
Overall bit rate : 3 941 Kbps
Movie name : Proklyatie.Chernoy.zhemchuzhiny.2003.BDRip-AVC_[New-team]_by_AVP_Studio
Encoded date : UTC 2015-08-22 05:39:46
Writing application : mkvmerge v7.0.0 ('Where We Going') 64bit built on Jun 9 2014 15:16:27
Writing library : libebml v1.3.0 + libmatroska v1.4.1
Video
ID : 2
Format : AVC
Format/Info : Advanced Video Codec
Format profile : High@L4.1
Format settings, CABAC : Yes
Format settings, ReFrames : 9 frames
Codec ID : V_MPEG4/ISO/AVC
Duration : 2h 23mn
Bit rate : 3 553 Kbps
Width : 1 024 pixels
Height : 424 pixels
Display aspect ratio : 2.40:1
Frame rate : 59.940 fps
Color space : YUV
Chroma subsampling : 4:2:0
Bit depth : 8 bits
Scan type : Progressive
Bits/(Pixel*Frame) : 0.137
Stream size : 3.48 GiB (88%)
Writing library : x264 core 146 r2538 121396c
Encoding settings : cabac=1 / ref=9 / deblock=1:0:0 / analyse=0x3:0x113 / me=umh / subme=11 / psy=1 / psy_rd=0.00:0.00 / mixed_ref=1 / me_range=42 / chroma_me=1 / trellis=2 / 8x8dct=1 / cqm=0 / deadzone=21,11 / fast_pskip=1 / chroma_qp_offset=0 / threads=12 / lookahead_threads=1 / sliced_threads=0 / nr=0 / decimate=1 / interlaced=0 / bluray_compat=0 / constrained_intra=0 / bframes=16 / b_pyramid=2 / b_adapt=1 / b_bias=0 / direct=1 / weightb=1 / open_gop=0 / weightp=2 / keyint=250 / keyint_min=25 / scenecut=40 / intra_refresh=0 / rc=2pass / mbtree=0 / bitrate=3553 / ratetol=1.0 / qcomp=0.60 / qpmin=0 / qpmax=69 / qpstep=4 / cplxblur=20.0 / qblur=0.5 / ip_ratio=1.40 / pb_ratio=1.30 / aq=1:1.00
Language : English
Default : Yes
Forced : No
Audio
ID : 1
Format : AC-3
Format/Info : Audio Coding 3
Mode extension : CM (complete main)
Codec ID : A_AC3
Duration : 2h 23mn
Bit rate mode : Constant
Bit rate : 384 Kbps
Channel(s) : 6 channels
Channel positions : Front: L C R, Side: L R, LFE
Sampling rate : 48.0 KHz
Bit depth : 16 bits
Compression mode : Lossy
Stream size : 393 MiB (10%)
Title : Дубляж (АС3 384)
Language : Russian
Default : Yes
Forced : No
Text #1
ID : 3
Format : UTF-8
Codec ID : S_TEXT/UTF8
Codec ID/Info : UTF-8 Plain Text
Title : Источник BDRemux SoftSub (srt)
Language : Russian
Default : No
Forced : No
Text #2
ID : 4
Format : UTF-8
Codec ID : S_TEXT/UTF8
Codec ID/Info : UTF-8 Plain Text
Title : Источник BDRemux SoftSub (srt)
Language : Russian
Default : No
Forced : No
Text #3
ID : 5
Format : UTF-8
Codec ID : S_TEXT/UTF8
Codec ID/Info : UTF-8 Plain Text
Title : Источник BDRemux SoftSub (srt)
Language : English
Default : No
Forced : No
Text #4
ID : 6
Format : UTF-8
Codec ID : S_TEXT/UTF8
Codec ID/Info : UTF-8 Plain Text
Title : Форсированые
Language : Russian
Default : Yes
Forced : No
Menu
00:00:00.000 : ru:00:00:00.000000000
00:05:00.000 : :00:05:00.000000000
00:10:00.000 : :00:10:00.000000000
00:15:00.000 : :00:15:00.000000000
00:20:00.000 : :00:20:00.000000000
00:25:00.000 : :00:25:00.000000000
00:30:00.000 : :00:30:00.000000000
00:35:00.000 : :00:35:00.000000000
00:40:00.000 : :00:40:00.000000000
00:45:00.000 : :00:45:00.000000000
00:50:00.000 : :00:50:00.000000000
00:55:00.000 : :00:55:00.000000000
01:00:00.000 : :01:00:00.000000000
01:05:00.000 : :01:05:00.000000000
01:10:00.000 : :01:10:00.000000000
01:15:00.000 : :01:15:00.000000000
01:20:00.000 : :01:20:00.000000000
01:25:00.000 : :01:25:00.000000000
01:30:00.000 : :01:30:00.000000000
01:35:00.000 : :01:35:00.000000000
01:40:00.000 : :01:40:00.000000000
01:45:00.000 : :01:45:00.000000000
01:50:00.000 : :01:50:00.000000000
01:55:00.000 : :01:55:00.000000000
02:00:00.000 : :02:00:00.000000000
02:05:00.000 : :02:05:00.000000000
02:10:00.000 : :02:10:00.000000000
02:15:00.000 : :02:15:00.000000000
02:20:00.000 : :02:20:00.000000000

Скриншоты

Пираты Карибского моря: Сундук мертвеца

-Название: Пираты Карибского моря: Сундук мертвеца
Оригинальное название: Pirates of the Caribbean: Dead Man's Chest
Год выпуска: 2006
Страна: США
Жанр: фэнтези, боевик, приключения
Продолжительность: 02:30:38
Перевод: Дубляж
Субтитры: русские , английские-Режиссер: Гор Вербински / Gore Verbinski-В ролях: Джонни Депп (Jack Sparrow), Орландо Блум (Will Turner), Кира Найтли (Elizabeth Swann), Джек Девенпорт (Norrington), Билл Найи (Davy Jones), Стеллан Скарсгард (Bootstrap Bill), Кевин МакНэлли (Gibbs), Ли Аренберг (Pintel), Макензи Крук (Ragetti), Том Холландер (Cutler Beckett), Джонатан Прайс (Governor Weatherby Swann), Дэвид Бэйли (Cotton)-Описание:
Вновь оказавшись в ирреальном мире, лихой капитан Джек Воробей неожиданно узнает, что является должником легендарного капитана «Летучего Голландца» Дэйви Джонса. Джек должен в кратчайшие сроки решить эту проблему, иначе ему грозит вечное проклятие и рабское существование после смерти. Вдобавок ко всему, срывается свадьба Уилла Тернера и Элизабет Суонн, которые вынуждены составить Джеку компанию в его злоключениях...-Рейтинг

imdb.com: 7.30 (468 133)
MPAA: PG-13 - Детям до 13 лет просмотр не желателен-Качество: BDRip-AVC / 60fps
Формат: MKV
Видео кодек: AVC
Аудио кодек: AC3
Видео: AVC, 1024x432 (2.35:1), 3380 kbps, 59,940 fps, 0,127 bpp
Аудио: русский / AC3 / 5.1 / 48 kHz / 384 kbps / 16 bit
Навигация по главам: есть- -MI
General
Unique ID : 179463312983819180375967882089103880025 (0x870360788CCF4640B5B446C9707BEF59)
Complete name : E:КодировкаРаздачаПираты карибского моря 1-4Пираты карибского моря - Сундук мертвеца 60fps.mkv
Format : Matroska
Format version : Version 4 / Version 2
File size : 3.96 GiB
Duration : 2h 30mn
Overall bit rate : 3 768 Kbps
Movie name : Sunduk.mertveca.2006.BDRip-AVC_[New-team]_by_AVP_Studio
Encoded date : UTC 2015-08-22 05:22:57
Writing application : mkvmerge v7.0.0 ('Where We Going') 64bit built on Jun 9 2014 15:16:27
Writing library : libebml v1.3.0 + libmatroska v1.4.1
Video
ID : 3
Format : AVC
Format/Info : Advanced Video Codec
Format profile : High@L4.1
Format settings, CABAC : Yes
Format settings, ReFrames : 10 frames
Codec ID : V_MPEG4/ISO/AVC
Duration : 2h 30mn
Bit rate : 3 380 Kbps
Width : 1 024 pixels
Height : 432 pixels
Display aspect ratio : 2.35:1
Frame rate : 59.940 fps
Color space : YUV
Chroma subsampling : 4:2:0
Bit depth : 8 bits
Scan type : Progressive
Bits/(Pixel*Frame) : 0.127
Stream size : 3.48 GiB (88%)
Writing library : x264 core 146 r2538 121396c
Encoding settings : cabac=1 / ref=10 / deblock=1:0:0 / analyse=0x3:0x113 / me=umh / subme=11 / psy=1 / psy_rd=1.00:0.00 / mixed_ref=1 / me_range=32 / chroma_me=1 / trellis=2 / 8x8dct=1 / cqm=0 / deadzone=21,11 / fast_pskip=1 / chroma_qp_offset=-2 / threads=12 / lookahead_threads=1 / sliced_threads=0 / nr=0 / decimate=1 / interlaced=0 / bluray_compat=0 / constrained_intra=0 / bframes=3 / b_pyramid=2 / b_adapt=2 / b_bias=0 / direct=1 / weightb=1 / open_gop=0 / weightp=2 / keyint=250 / keyint_min=25 / scenecut=40 / intra_refresh=0 / rc_lookahead=40 / rc=2pass / mbtree=1 / bitrate=3380 / ratetol=1.0 / qcomp=0.60 / qpmin=0 / qpmax=69 / qpstep=4 / cplxblur=20.0 / qblur=0.5 / ip_ratio=1.40 / aq=1:1.00
Language : English
Default : Yes
Forced : No
Audio
ID : 4
Format : AC-3
Format/Info : Audio Coding 3
Mode extension : CM (complete main)
Codec ID : A_AC3
Duration : 2h 30mn
Bit rate mode : Constant
Bit rate : 384 Kbps
Channel(s) : 6 channels
Channel positions : Front: L C R, Side: L R, LFE
Sampling rate : 48.0 KHz
Bit depth : 16 bits
Compression mode : Lossy
Stream size : 414 MiB (10%)
Title : Дубляж (АС3 384)
Language : Russian
Default : Yes
Forced : No
Text #1
ID : 1
Format : UTF-8
Codec ID : S_TEXT/UTF8
Codec ID/Info : UTF-8 Plain Text
Title : Источник BDRemux SoftSub (srt)
Language : Russian
Default : No
Forced : No
Text #2
ID : 2
Format : UTF-8
Codec ID : S_TEXT/UTF8
Codec ID/Info : UTF-8 Plain Text
Title : Источник BDRemux SoftSub (srt)
Language : English
Default : No
Forced : No
Menu
00:00:00.000 : ru:00:00:00.000000000
00:05:00.000 : :00:05:00.000000000
00:10:00.000 : :00:10:00.000000000
00:15:00.000 : :00:15:00.000000000
00:20:00.000 : :00:20:00.000000000
00:25:00.000 : :00:25:00.000000000
00:30:00.000 : :00:30:00.000000000
00:35:00.000 : :00:35:00.000000000
00:40:00.000 : :00:40:00.000000000
00:45:00.000 : :00:45:00.000000000
00:50:00.000 : :00:50:00.000000000
00:55:00.000 : :00:55:00.000000000
01:00:00.000 : :01:00:00.000000000
01:05:00.000 : :01:05:00.000000000
01:10:00.000 : :01:10:00.000000000
01:15:00.000 : :01:15:00.000000000
01:20:00.000 : :01:20:00.000000000
01:25:00.000 : :01:25:00.000000000
01:30:00.000 : :01:30:00.000000000
01:35:00.000 : :01:35:00.000000000
01:40:00.000 : :01:40:00.000000000
01:45:00.000 : :01:45:00.000000000
01:50:00.000 : :01:50:00.000000000
01:55:00.000 : :01:55:00.000000000
02:00:00.000 : :02:00:00.000000000
02:05:00.000 : :02:05:00.000000000
02:10:00.000 : :02:10:00.000000000
02:15:00.000 : :02:15:00.000000000
02:20:00.000 : :02:20:00.000000000
02:25:00.000 : :02:25:00.000000000

Скриншоты

Пираты Карибского моря: На краю Света

-Название: Пираты Карибского моря: На краю Света
Оригинальное название: Pirates of the Caribbean: At World's End
Год выпуска: 2007
Страна: США
Жанр: фэнтези, боевик, приключения
Продолжительность: 02:48:29
Перевод: Дубляж
Субтитры: русские (форсированные), русские (полные), украинские (форсированные), украинские (полные), английские (полные)-Режиссер: Гор Вербински / Gore Verbinski-В ролях: Джонни Депп (Jack Sparrow), Джеффри Раш (Captain Hector Barbossa), Орландо Блум (Will Turner), Кира Найтли (Elizabeth Swann), Том Холландер (Cutler Beckett), Билл Найи (Davy Jones), Стеллан Скарсгард (Bootstrap Bill), Наоми Харрис (Tia Dalma), Джек Девенпорт (Norrington), Чоу Юнь-Фат (Captain Sao Feng), Джонатан Прайс (Governor Weatherby Swann), Кит Ричардс (Captain Teague)-Описание:
Новые приключения Джека Воробья и его друзей Уилла Тернера и Элизабет Суонн. На этот раз Уиллу и Элизабет придется объединиться с самим Капитаном Барбоссой для того, чтобы отправиться на край света и спасти своего друга - Джека. Ситуация осложняется тем, что Элизабет попадает к сингапурским пиратам...-Рейтинг

imdb.com: 7.10 (422 567)
MPAA: PG-13 - Детям до 13 лет просмотр не желателен-Качество: BDRip-AVC / 60fps
Формат: MKV
Видео кодек: AVC
Аудио кодек: AC3
Видео: AVC, 1024x432 (2.35:1), 3036 kbps, 59,940 fps, 0,114 bpp
Аудио: русский / AC3 / 5.1 / 48 kHz / 384 kbps / 16 bit
Навигация по главам: есть- -MI
General
Unique ID : 253653641963053130809369534280339804250 (0xBED3EA19C908A76A81886ADAAD3FD05A)
Complete name : E:КодировкаРаздачаПираты карибского моря 1-4Пираты Карибского моря На краю света - Pirates Of The Caribbean At Worlds End.BluRay-REMUX (1) (1) (1).mkv
Format : Matroska
Format version : Version 4 / Version 2
File size : 4.03 GiB
Duration : 2h 48mn
Overall bit rate : 3 425 Kbps
Movie name : -=Leo.pard=- [scarabey.org]
Encoded date : UTC 2015-08-22 05:47:34
Writing application : mkvmerge v7.0.0 ('Where We Going') 64bit built on Jun 9 2014 15:16:27
Writing library : libebml v1.3.0 + libmatroska v1.4.1
Attachment : Yes
Video
ID : 2
Format : AVC
Format/Info : Advanced Video Codec
Format profile : High@L4.1
Format settings, CABAC : Yes
Format settings, ReFrames : 10 frames
Codec ID : V_MPEG4/ISO/AVC
Duration : 2h 48mn
Bit rate : 3 036 Kbps
Width : 1 024 pixels
Height : 432 pixels
Display aspect ratio : 2.35:1
Frame rate : 59.940 fps
Color space : YUV
Chroma subsampling : 4:2:0
Bit depth : 8 bits
Scan type : Progressive
Bits/(Pixel*Frame) : 0.114
Stream size : 3.50 GiB (87%)
Writing library : x264 core 146 r2538 121396c
Encoding settings : cabac=1 / ref=10 / deblock=1:0:0 / analyse=0x3:0x113 / me=umh / subme=11 / psy=1 / psy_rd=1.00:0.00 / mixed_ref=1 / me_range=32 / chroma_me=1 / trellis=2 / 8x8dct=1 / cqm=0 / deadzone=21,11 / fast_pskip=1 / chroma_qp_offset=-2 / threads=12 / lookahead_threads=1 / sliced_threads=0 / nr=0 / decimate=1 / interlaced=0 / bluray_compat=0 / constrained_intra=0 / bframes=3 / b_pyramid=2 / b_adapt=2 / b_bias=0 / direct=1 / weightb=1 / open_gop=0 / weightp=2 / keyint=250 / keyint_min=25 / scenecut=40 / intra_refresh=0 / rc_lookahead=40 / rc=2pass / mbtree=1 / bitrate=3036 / ratetol=1.0 / qcomp=0.60 / qpmin=0 / qpmax=69 / qpstep=4 / cplxblur=20.0 / qblur=0.5 / ip_ratio=1.40 / aq=1:1.00
Language : English
Default : Yes
Forced : No
Audio
ID : 1
Format : AC-3
Format/Info : Audio Coding 3
Mode extension : CM (complete main)
Codec ID : A_AC3
Duration : 2h 48mn
Bit rate mode : Constant
Bit rate : 384 Kbps
Channel(s) : 6 channels
Channel positions : Front: L C R, Side: L R, LFE
Sampling rate : 48.0 KHz
Bit depth : 16 bits
Compression mode : Lossy
Stream size : 463 MiB (11%)
Title : Дубляж (АС3 384)
Language : Russian
Default : Yes
Forced : No
Text #1
ID : 3
Format : UTF-8
Codec ID : S_TEXT/UTF8
Codec ID/Info : UTF-8 Plain Text
Title : Русские форсированные
Language : Russian
Default : Yes
Forced : No
Text #2
ID : 4
Format : UTF-8
Codec ID : S_TEXT/UTF8
Codec ID/Info : UTF-8 Plain Text
Title : Русские полные
Language : Russian
Default : No
Forced : No
Text #3
ID : 5
Format : UTF-8
Codec ID : S_TEXT/UTF8
Codec ID/Info : UTF-8 Plain Text
Title : Украинские форсированные
Language : Ukrainian
Default : No
Forced : No
Text #4
ID : 6
Format : UTF-8
Codec ID : S_TEXT/UTF8
Codec ID/Info : UTF-8 Plain Text
Title : Украинские полные
Language : Ukrainian
Default : No
Forced : No
Text #5
ID : 7
Format : UTF-8
Codec ID : S_TEXT/UTF8
Codec ID/Info : UTF-8 Plain Text
Title : Английские Full
Language : English
Default : No
Forced : No
Menu
00:00:00.000 : :Chapter 1
00:04:33.939 : :Chapter 2
00:10:01.808 : :Chapter 3
00:19:58.279 : :Chapter 4
00:26:07.481 : :Chapter 5
00:32:47.339 : :Chapter 6
00:39:40.335 : :Chapter 7
00:46:04.760 : :Chapter 8
00:51:31.963 : :Chapter 9
00:58:03.730 : :Chapter 10
01:04:50.677 : :Chapter 11
01:12:46.819 : :Chapter 12
01:17:54.877 : :Chapter 13
01:24:46.537 : :Chapter 14
01:28:41.356 : :Chapter 15
01:33:34.149 : :Chapter 16
01:38:05.671 : :Chapter 17
01:41:52.980 : :Chapter 18
01:48:12.652 : :Chapter 19
01:53:13.286 : :Chapter 20
01:59:31.372 : :Chapter 21
02:05:52.211 : :Chapter 22
02:09:13.244 : :Chapter 23
02:13:53.524 : :Chapter 24
02:23:19.254 : :Chapter 25
02:28:15.636 : :Chapter 26
02:34:29.217 : :Chapter 27
02:38:48.558 : :Chapter 28
02:48:30.100 : :Chapter 29

Скриншоты

Пираты Карибского моря: На странных берегах

-Название: Пираты Карибского моря: На странных берегах
Оригинальное название: Pirates of the Caribbean: On Stranger Tides
Год выпуска: 2011
Страна: США, Великобритания
Жанр: фэнтези, боевик, комедия, приключения
Продолжительность: 02:16:23
Перевод: Дубляж
Субтитры: русские, английские-Режиссер: Роб Маршалл / Rob Marshall-В ролях: Джонни Депп (Jack Sparrow), Пенелопа Крус (Angelica), Джеффри Раш (Barbossa), Иэн МакШейн (Blackbeard), Кевин МакНэлли (Gibbs), Сэм Клафлин (Philip), Астрид Берже-Фрисби (Syrena), Стивен Грэм (Scrum), Кит Ричардс (Captain Teague), Ричард Гриффитс (King George), Грег Эллис (Groves), Дэмиан О’Хейр (Gillette)-Описание:
В новой истории о поисках истины, предательстве, вечной молодости и смертельной опасности капитану Джеку Воробью предстоит столкнуться с женщиной из своего прошлого Анжеликой. До самого конца не будет понятно, связывает ли их настоящая любовь, или же Анжелика искусно притворяется, чтобы вместе с Джеком добраться до таинственного источника вечной молодости.
Она силой принуждает капитана Джека Воробья взойти на корабль «Месть Королевы Анны», которым управляет коварный злодей Черная Борода. Наш герой оказывается в ситуации, когда он не знает, чего ему бояться больше - ужасного злодея или же свою давнюю подругу.-Рейтинг

imdb.com: 6.70 (329 599)
MPAA: PG-13 - Детям до 13 лет просмотр не желателен-Качество: BDRip-AVC / 60fps
Формат: MKV
Видео кодек: AVC
Аудио кодек: AC3
Видео: AVC, 1024x432 (2.35:1), 3567 kbps, 59,940 fps, 0,135 bpp
Аудио: русский / AC3 / 5.1 / 48 kHz / 448 kbps / 16 bit
Навигация по главам: есть- -MI
General
Unique ID : 176299274756772738568205460470407136050 (0x84A201579749CD93A32C4919E5208332)
Complete name : E:КодировкаРаздачаПираты карибского моря 1-44-Пираты Карибского моря-на странных берегах 60fps (1) (1).mkv
Format : Matroska
Format version : Version 4 / Version 2
File size : 3.83 GiB
Duration : 2h 16mn
Overall bit rate : 4 019 Kbps
Movie name : Na.strannyh.beregah.2011.BDRip-AVC_[New-team]_by_AVP_Studio
Encoded date : UTC 2015-08-22 06:01:25
Writing application : mkvmerge v7.0.0 ('Where We Going') 64bit built on Jun 9 2014 15:16:27
Writing library : libebml v1.3.0 + libmatroska v1.4.1
Video
ID : 2
Format : AVC
Format/Info : Advanced Video Codec
Format profile : High@L4.1
Format settings, CABAC : Yes
Format settings, ReFrames : 10 frames
Codec ID : V_MPEG4/ISO/AVC
Duration : 2h 16mn
Bit rate : 3 567 Kbps
Width : 1 024 pixels
Height : 432 pixels
Display aspect ratio : 2.35:1
Frame rate : 59.940 fps
Color space : YUV
Chroma subsampling : 4:2:0
Bit depth : 8 bits
Scan type : Progressive
Bits/(Pixel*Frame) : 0.135
Stream size : 3.33 GiB (87%)
Writing library : x264 core 146 r2538 121396c
Encoding settings : cabac=1 / ref=10 / deblock=1:0:0 / analyse=0x3:0x113 / me=umh / subme=11 / psy=1 / psy_rd=1.00:0.00 / mixed_ref=1 / me_range=32 / chroma_me=1 / trellis=2 / 8x8dct=1 / cqm=0 / deadzone=21,11 / fast_pskip=1 / chroma_qp_offset=-2 / threads=12 / lookahead_threads=1 / sliced_threads=0 / nr=0 / decimate=1 / interlaced=0 / bluray_compat=0 / constrained_intra=0 / bframes=3 / b_pyramid=2 / b_adapt=2 / b_bias=0 / direct=1 / weightb=1 / open_gop=0 / weightp=2 / keyint=250 / keyint_min=25 / scenecut=40 / intra_refresh=0 / rc_lookahead=40 / rc=2pass / mbtree=1 / bitrate=3567 / ratetol=1.0 / qcomp=0.60 / qpmin=0 / qpmax=69 / qpstep=4 / cplxblur=20.0 / qblur=0.5 / ip_ratio=1.40 / aq=1:1.00
Language : English
Default : Yes
Forced : No
Audio
ID : 1
Format : AC-3
Format/Info : Audio Coding 3
Mode extension : CM (complete main)
Codec ID : A_AC3
Duration : 2h 16mn
Bit rate mode : Constant
Bit rate : 448 Kbps
Channel(s) : 6 channels
Channel positions : Front: L C R, Side: L R, LFE
Sampling rate : 48.0 KHz
Bit depth : 16 bits
Compression mode : Lossy
Stream size : 437 MiB (11%)
Title : Дубляж
Language : Russian
Default : Yes
Forced : No
Text #1
ID : 3
Format : UTF-8
Codec ID : S_TEXT/UTF8
Codec ID/Info : UTF-8 Plain Text
Title : Источник BDRemux SoftSub (srt)
Language : Russian
Default : No
Forced : No
Text #2
ID : 4
Format : UTF-8
Codec ID : S_TEXT/UTF8
Codec ID/Info : UTF-8 Plain Text
Title : Источник BDRemux SoftSub (srt)
Language : Russian
Default : No
Forced : No
Text #3
ID : 5
Format : UTF-8
Codec ID : S_TEXT/UTF8
Codec ID/Info : UTF-8 Plain Text
Title : Источник BDRemux SoftSub (srt)
Language : English
Default : No
Forced : No
Menu
00:00:00.000 : en:00:00:00.000
00:03:34.172 : en:00:03:34.172
00:08:46.776 : en:00:08:46.776
00:15:56.080 : en:00:15:56.080
00:18:34.155 : en:00:18:34.155
00:21:15.316 : en:00:21:15.316
00:30:05.512 : en:00:30:05.512
00:36:56.756 : en:00:36:56.756
00:42:05.356 : en:00:42:05.356
00:48:20.022 : en:00:48:20.022
00:53:26.078 : en:00:53:26.078
00:55:42.965 : en:00:55:42.965
00:57:52.844 : en:00:57:52.844
01:00:47.477 : en:01:00:47.477
01:08:22.223 : en:01:08:22.223
01:11:41.339 : en:01:11:41.339
01:13:03.170 : en:01:13:03.170
01:14:16.744 : en:01:14:16.744
01:23:19.995 : en:01:23:19.995
01:26:49.621 : en:01:26:49.621
01:30:16.494 : en:01:30:16.494
01:35:43.738 : en:01:35:43.738
01:40:57.927 : en:01:40:57.927
01:43:07.556 : en:01:43:07.556
01:44:51.660 : en:01:44:51.660
01:48:53.610 : en:01:48:53.610
01:57:41.471 : en:01:57:41.471
02:02:21.376 : en:02:02:21.376
02:05:51.461 : en:02:05:51.461
02:07:26.806 : en:02:07:26.806

Скриншоты

Просьба к переливающим на другие сайты, в оформлении указывайте пожалуйста авторство группы
[Профиль] [ЛС]
Показать сообщения:    

Текущее время: Сегодня 09:03

Часовой пояс: GMT



Вы не можете начинать темы
Вы не можете отвечать на сообщения
Вы не можете редактировать свои сообщения
Вы не можете удалять свои сообщения
Вы не можете голосовать в опросах
Вы не можете прикреплять файлы к сообщениям
Вы не можете скачивать файлы