Пираньи / Piranha (Александр Ажа / Alexandre Aja) [2010, США, Ужасы, комедия, BDRip] Dub (R5) + Dub (РЕН ТВ) + Original (Eng) + Subs (Rus, Eng)

 
Автор Сообщение

TorrentFilm ®

Пол:

Стаж: 2 года

Сообщений: 7741



Награды: Нет

Торрент-статистика

Создавать темы 06-Мар-2016 00:00

[Цитировать]

Пираньи / Piranha
«Этим летом 3D покажет свои зубки»
- Год выпуска: 2010
Выпущено: США / Dimension Films
Жанр: ужасы, комедия
Продолжительность: 01:28:21
Перевод (1): Профессиональный (полное дублирование) R5 / Студия «Пифагор»
Перевод (2): Профессиональный (полное дублирование) РЕН ТВ
Cубтитры: Русские, Английские (внешние .srt*)
Оригинальная аудиодорожка: английский-Режиссер:
Александр Ажа / Alexandre Aja-В ролях:
Элизабет Шу (Julie Forester), Стивен Р. МакКуин (Jake Forester), Адам Скотт (Novak), Джерри О’Коннелл (Derrick Jones), Джессика Зор (Kelly), Винг Реймз (Deputy Fallon), Бруклин Пру (Laura Forester), Сэйдж Райан (Zane Forester), Кристофер Ллойд (Mr. Carl Goodman), Келли Брук (Danni)-Описание:
20 тысяч подростков курортного городка у озера Виктория готовятся к празднованию ежегодного праздника начала лета. Но ночное землетрясение высвобождает сотни тысяч доисторических пираний прямо накануне торжества. Очаровательная шериф, ее подчиненные-полицейские и доктор Горден Рэйбэнкс решают сделать все, чтобы веселый праздник молодежи в озере не превратился в кровавое пиршество. Но пираньи уже знают ответ, кто победит: молодость или многовековая жажда крови…-Релиз групп | | IMDB | КиноПоиск | Сэмпл |-Качество: BDRip [BDRemux | 1080p | Кинозал]
Формат: AVI
Видео: 720x304 (2.37:1), 23.976 fps, XviD build 73 ~1720 kbps avg, 0.33 bit/pixel
Аудио #1: 48 kHz, AC3 Dolby Digital, 3/2 (L,C,R,l,r) + LFE ch, ~448.00 kbps avg (R5)
Аудио #2: 48 kHz, AC3 Dolby Digital, 2/0 (C) ch, ~192.00 kbps avg (РЕН ТВ)-(1.46 Gb)-Аудио #3: 48 kHz, AC3 Dolby Digital, 3/2 (L,C,R,l,r) + LFE ch, ~448.00 kbps avg (ENG) отдельно
-

Скриншоты

MediaInfo

General
Complete name                            : D:\Piran`i_2010_BDRip_by_Dalemake.avi
Format                                   : AVI
Format/Info                              : Audio Video Interleave
File size                                : 1.47 GiB
Duration                                 : 1h 28mn
Overall bit rate                         : 2 375 Kbps
Writing application                      : VirtualDubMod 1.5.10.3 | www.virtualdub-fr.org || (build 2550/release)
Writing library                          : VirtualDubMod build 2550/release
Video
ID                                       : 0
Format                                   : MPEG-4 Visual
Format profile                           : Advanced Simple@L5
Format settings, BVOP                    : 1
Format settings, QPel                    : No
Format settings, GMC                     : No warppoints
Format settings, Matrix                  : Custom
Codec ID                                 : XVID
Codec ID/Hint                            : XviD
Duration                                 : 1h 28mn
Bit rate                                 : 1 721 Kbps
Width                                    : 720 pixels
Height                                   : 304 pixels
Display aspect ratio                     : 2.35:1
Frame rate                               : 23.976 (23976/1000) fps
Color space                              : YUV
Chroma subsampling                       : 4:2:0
Bit depth                                : 8 bits
Scan type                                : Progressive
Compression mode                         : Lossy
Bits/(Pixel*Frame)                       : 0.328
Stream size                              : 1.06 GiB (72%)
Writing library                          : XviD 73
Audio #1
ID                                       : 1
Format                                   : AC-3
Format/Info                              : Audio Coding 3
Mode extension                           : CM (complete main)
Format settings, Endianness              : Big
Codec ID                                 : 2000
Duration                                 : 1h 28mn
Bit rate mode                            : Constant
Bit rate                                 : 448 Kbps
Channel(s)                               : 6 channels
Channel positions                        : Front: L C R, Side: L R, LFE
Sampling rate                            : 48.0 KHz
Frame rate                               : 31.250 fps (1536 spf)
Compression mode                         : Lossy
Stream size                              : 283 MiB (19%)
Alignment                                : Split accross interleaves
Interleave, duration                     : 42 ms (1.00 video frame)
Interleave, preload duration             : 500 ms
Audio #2
ID                                       : 2
Format                                   : AC-3
Format/Info                              : Audio Coding 3
Mode extension                           : CM (complete main)
Format settings, Endianness              : Big
Codec ID                                 : 2000
Duration                                 : 1h 28mn
Bit rate mode                            : Constant
Bit rate                                 : 192 Kbps
Channel(s)                               : 2 channels
Channel positions                        : Front: L R
Sampling rate                            : 48.0 KHz
Frame rate                               : 31.250 fps (1536 spf)
Compression mode                         : Lossy
Stream size                              : 121 MiB (8%)
Alignment                                : Split accross interleaves
Interleave, duration                     : 42 ms (1.00 video frame)
Interleave, preload duration             : 500 ms

Благодарности

Дубляж пифагор с DVD, перевод РЕН ТВ - с последнего показа, записал miha2154
Работа со звуком и русскими субтитрами - Dreven
-
[Профиль] [ЛС]

Создавать темы 12-Июн-2016 07:53 (спустя 3 месяца 6 дней)

Топик был перенесен из форума Фильмы 2011 года в форум Фильмы 2010 года
Russian Mafia
 
Показать сообщения:    

Текущее время: Сегодня 06:07

Часовой пояс: GMT



Вы не можете начинать темы
Вы не можете отвечать на сообщения
Вы не можете редактировать свои сообщения
Вы не можете удалять свои сообщения
Вы не можете голосовать в опросах
Вы не можете прикреплять файлы к сообщениям
Вы не можете скачивать файлы