Пирамммида (Эльдар Салаватов) [2011, Россия, боевик, триллер, драма, криминал, биография, BDRip 1080p]

 
Автор Сообщение

TorrentFilm ®

Пол:

Стаж: 2 года

Сообщений: 7741



Награды: Нет

Торрент-статистика

Создавать темы 01-Янв-2016 00:06

[Цитировать]

Пирамммида
Страна: Россия
Жанр: боевик, триллер, драма, криминал, биография
Год выпуска: 2011
Продолжительность: 01:49:45
Перевод: Не требуется
Cубтитры: нет
Режиссер: Эльдар Салаватов
В ролях: Алексей Серебряков, Фёдор Бондарчук, Петр Федоров, Екатерина Вилкова, Никита Салопин, Юрий Цурило, Алексей Горбунов, Артем Михалков, Анна Михалкова, Даниил Спиваковский
Описание: Россия, начало 90-х. Страна в процессе болезненного перехода от сверхцентрализованной плановой экономики к рыночным отношениям. Простые люди, прежде жившие в условиях стабильности, растеряны и перепуганы. Все пришло в движение, ход истории разворачивается на глазах. Поворотные моменты истории всегда способствуют появлению всевозможных самозванцев и талантливых мошенников.
Сергей Мамонтов ищет, куда применить себя и свой интеллект. И находит. Мамонтов заказывает макет «ценной бумаги» с имперской вязью, богатым орнаментом, водяными знаками и собственным портретом в самом центре. Своим «деньгам» он назначает цену сам и продает их по принципу: сегодня всегда дороже, чем вчера.
Началась активная рекламная кампания. Чуть больше двух недель оказалось достаточно, чтобы народ уже выстроился в очереди за «мамонтовками», а Мамонтов стал едва ли не национальным героем. И могущественные банкиры, и властные структуры в растерянности — никто не имеет понятия, как прекратить этот беспредел — а в МММ уже набралось больше 10 миллионов вкладчиков… Заговоры, похищения людей, погони, заказные убийства. И немного любви.
Сэмпл: http://multi-up.com/727353
Тип релиза: BDRip 1080p
Контейнер: MKV
Видео: H.264, 1920x800, 23,976 fps, 8001 kbps
Аудио: DTS, 5.1ch, 48 kHz, 1509 kbps

MediaInfo

Общее
Уникальный идентификатор : 217769338088783861558220477092099693872 (0xA3D4D952C91B9D9AA5AA45758ECE9D30)
Полное имя : D:\Films\Pirammmida.2011.BDRip.1080p.mkv
Формат : Matroska
Версия формата : Version 2
Размер файла : 7,29 Гбайт
Продолжительность : 1 ч. 49 м.
Общий поток : 9507 Кбит/сек
Дата кодирования : UTC 2012-06-24 05:41:23
Программа кодирования : mkvmerge v5.6.0 ('Kenya Kane') built on May 27 2012 16:44:04
Библиотека кодирования : libebml v1.2.3 + libmatroska v1.3.0
Видео
Идентификатор : 1
Формат : AVC
Формат/Информация : Advanced Video Codec
Профиль формата : High@L4.1
Параметр CABAC формата : Да
Параметр ReFrames формата : 4 кадра
Идентификатор кодека : V_MPEG4/ISO/AVC
Продолжительность : 1 ч. 49 м.
Битрейт : 8001 Кбит/сек
Ширина : 1920 пикселей
Высота : 800 пикселей
Соотношение сторон : 2,40:1
Частота кадров : 23,976 кадра/сек
Цветовое пространство : YUV
Субдискретизация насыщенности : 4:2:0
Битовая глубина : 8 бит
Тип развёртки : Прогрессивная
Бит/(Пиксели*Кадры) : 0.217
Размер потока : 5,99 Гбайт (82%)
Библиотека кодирования : x264 core 124 r2197 69a0443
Настройки программы : cabac=1 / ref=4 / deblock=1:-2:-2 / analyse=0x3:0x133 / me=tesa / subme=11 / psy=1 / psy_rd=1.00:0.10 / mixed_ref=1 / me_range=48 / chroma_me=1 / trellis=2 / 8x8dct=1 / cqm=0 / deadzone=21,11 / fast_pskip=1 / chroma_qp_offset=-5 / threads=8 / sliced_threads=0 / nr=0 / decimate=1 / interlaced=0 / bluray_compat=0 / constrained_intra=0 / bframes=3 / b_pyramid=2 / b_adapt=2 / b_bias=0 / direct=3 / weightb=1 / open_gop=1 / weightp=2 / keyint=250 / keyint_min=23 / scenecut=40 / intra_refresh=0 / rc_lookahead=60 / rc=2pass / mbtree=1 / bitrate=8001 / ratetol=1.0 / qcomp=0.70 / qpmin=0 / qpmax=69 / qpstep=4 / cplxblur=20.0 / qblur=0.5 / ip_ratio=1.40 / aq=1:1.00
Язык : Russian
Default : Да
Forced : Нет
Аудио
Идентификатор : 2
Формат : DTS
Формат/Информация : Digital Theater Systems
Идентификатор кодека : A_DTS
Продолжительность : 1 ч. 49 м.
Вид битрейта : Постоянный
Битрейт : 1510 Кбит/сек
Каналы : 6 каналов
Расположение каналов : Front: L C R, Side: L R, LFE
Частота : 48,0 КГц
Битовая глубина : 16 бит
Метод сжатия : С потерями
Размер потока : 1,16 Гбайт (16%)
Язык : Russian
Default : Да
Forced : Нет
PLATFORM
------------------------------
OS Code: Microsoft Windows NT 6.1.7601 Service Pack 1
OS Name: Windows 7 Ultimate Service Pack 1 (x64)
Framework: 2.0.50727.5448 (v4.0)
AviSynth: AviSynth 2.60, build:Mar 31 2012 [22:55:28]
CPU Info: Intel(R) Core(TM) i7 CPU 860 @ 2.80GHz (~2808), 8 core(s)
RAM Total: 16375Mb
Language: RUS (1251, ",")
SystemDrive: C:
XviD4PSP
------------------------------
Version: 5.10.276.1
Created: 28.04.2012 19:20:22
AppPath: C:\Program Files (x86)\XviD4PSP 5
TempPath: k:\Temp
FILES
------------------------------
00007.mkv >
00007.mkv
TASK
------------------------------
Format: MKV
Duration: 01:49:45:919 (157904)
VideoDecoder: DirectShowSource
Resolution: 1920x1080 > 1920x800
Aspect: 2.4000
VCodecPreset: x264 8001k 2P Custom
VEncodingMode: TwoPass
VideoCodec: h264 > x264 (64-bit)
VideoBitrate: 24495 > 8001
Quality: 0.493 > 0.217
Framerate: 23.976
SourceType: PROGRESSIVE
FieldOrder: UNKNOWN
SCRIPT
------------------------------
import("C:\Program Files (x86)\XviD4PSP 5\dlls\AviSynth\functions\AudioFunctions.avs")
import("C:\Program Files (x86)\XviD4PSP 5\dlls\AviSynth\functions\VideoFunctions.avs")
DirectShowSource("W:\00007.mkv", audio=false, fps=23.976, convertfps=true)
ConvertToYV12()
Crop(0, 140, -0, -140)
Lanczos4Resize(1920, 800)
###[FILTERING]###
###[FILTERING]###
VIDEO ENCODING
------------------------------
Encoding video to: H:\00007.mkv
x264 8001kbps 1920x800 23.976fps (157904 frames)
...first pass...
x264_64.exe: --pass 1 --bitrate 8001 --preset slower --level 4.1 --ref 4 --deblock -2:-2 --merange 48 --psy-rd 1.00:0.10 --threads 8 --qcomp 0.70 --chroma-qp-offset -2 --subme 11 --me tesa --open-gop --sar 1:1 --stats "H:\00007.log" --output NUL "k:\Temp\0000.avs"
raw [info]: 1920x800p 1:1 @ 2500000/104271 fps (cfr)
x264 [info]: using SAR=1/1
x264 [info]: using cpu capabilities: MMX2 SSE2Fast SSSE3 FastShuffle SSE4.2
x264 [info]: profile Main, level 4.1
x264 [info]: frame I:1139 Avg QP:17.86 size:178116
x264 [info]: frame P:44350 Avg QP:20.51 size: 62224
x264 [info]: frame B:112415 Avg QP:21.58 size: 31277
x264 [info]: consecutive B-frames: 1.4% 2.8% 24.7% 71.1%
x264 [info]: mb I I16..4: 43.3% 0.0% 56.7%
x264 [info]: mb P I16..4: 37.9% 0.0% 0.0% P16..4: 50.9% 0.0% 0.0% 0.0% 0.0% skip:11.3%
x264 [info]: mb B I16..4: 12.3% 0.0% 0.0% B16..8: 31.2% 0.0% 0.0% direct:28.1% skip:28.4% L0:32.4% L1:38.6% BI:29.0%
x264 [info]: final ratefactor: 20.39
x264 [info]: direct mvs spatial:99.7% temporal:0.3%
x264 [info]: coded y,uvDC,uvAC intra: 67.9% 79.1% 55.5% inter: 25.1% 40.9% 10.8%
x264 [info]: i16 v,h,dc,p: 27% 21% 37% 16%
x264 [info]: i4 v,h,dc,ddl,ddr,vr,hd,vl,hu: 19% 24% 17% 7% 7% 7% 7% 6% 7%
x264 [info]: i8c dc,h,v,p: 59% 17% 18% 6%
x264 [info]: Weighted P-Frames: Y:2.4% UV:1.1%
x264 [info]: kb/s:7869.55
x264 [total]: encoded 157904 frames, 21.71 fps, 7869.55 kb/s
...last pass...
x264_64.exe: --pass 2 --bitrate 8001 --preset slower --level 4.1 --ref 4 --deblock -2:-2 --merange 48 --psy-rd 1.00:0.10 --threads 8 --qcomp 0.70 --chroma-qp-offset -2 --subme 11 --me tesa --open-gop --stats "H:\00007.log" --sar 1:1 --output "H:\00007.mkv" "k:\Temp\0000.avs"
raw [info]: 1920x800p 1:1 @ 2500000/104271 fps (cfr)
x264 [info]: using SAR=1/1
x264 [info]: using cpu capabilities: MMX2 SSE2Fast SSSE3 FastShuffle SSE4.2
x264 [info]: profile High, level 4.1
x264 [info]: frame I:1139 Avg QP:20.08 size:169175
x264 [info]: frame P:44350 Avg QP:22.73 size: 59343
x264 [info]: frame B:112415 Avg QP:23.89 size: 33425
x264 [info]: consecutive B-frames: 1.4% 2.8% 24.7% 71.1%
x264 [info]: mb I I16..4: 22.1% 56.3% 21.6%
x264 [info]: mb P I16..4: 2.5% 6.2% 0.8% P16..4: 37.4% 35.0% 8.1% 1.3% 0.0% skip: 8.6%
x264 [info]: mb B I16..4: 0.7% 1.2% 0.1% B16..8: 43.5% 17.0% 2.0% direct: 8.1% skip:27.4% L0:45.9% L1:48.0% BI: 6.0%
x264 [info]: 8x8 transform intra:62.4% inter:61.4%
x264 [info]: direct mvs spatial:97.2% temporal:2.8%
x264 [info]: coded y,uvDC,uvAC intra: 79.8% 83.5% 61.2% inter: 27.2% 41.9% 18.5%
x264 [info]: i16 v,h,dc,p: 17% 23% 18% 42%
x264 [info]: i8 v,h,dc,ddl,ddr,vr,hd,vl,hu: 7% 9% 6% 11% 15% 14% 14% 12% 12%
x264 [info]: i4 v,h,dc,ddl,ddr,vr,hd,vl,hu: 10% 23% 8% 7% 11% 11% 10% 9% 11%
x264 [info]: i8c dc,h,v,p: 47% 20% 15% 18%
x264 [info]: Weighted P-Frames: Y:2.4% UV:1.1%
x264 [info]: ref P L0: 49.3% 9.3% 28.3% 10.5% 2.5% 0.1%
x264 [info]: ref B L0: 78.2% 17.6% 4.2%
x264 [info]: ref B L1: 90.4% 9.6%
x264 [info]: kb/s:7995.23
x264 [total]: encoded 157904 frames, 0.87 fps, 7995.23 kb/s
TIME
------------------------------
Общее время кодирования: 2 day 4 hour 11 min 38 sec
Файл получился на: 6278.34 mb

Скриншоты


Сравнение 1, 2-3.
[Профиль] [ЛС]
Показать сообщения:    

Текущее время: Сегодня 04:20

Часовой пояс: GMT



Вы не можете начинать темы
Вы не можете отвечать на сообщения
Вы не можете редактировать свои сообщения
Вы не можете удалять свои сообщения
Вы не можете голосовать в опросах
Вы не можете прикреплять файлы к сообщениям
Вы не можете скачивать файлы