Пингвины Мадагаскара / Penguins of Madagascar (2014) BDRip | D | Лицензия

 
Автор Сообщение

sergej644 ®

Пол:

Стаж: 4 года 11 месяцев

Сообщений: 6045

Откуда: Soviet Union



Награды: Нет

Торрент-статистика

Создавать темы 09-Авг-2015 18:28

[Цитировать]

Информация о фильме
Название: Пингвины Мадагаскара
Оригинальное название: Penguins of Madagascar
Год выхода: 2014
Жанр: Мультфильм, приключения, комедия
Режиссер: Эрик Дарнелл, Саймон Дж. Смит / Eric Darnell, Simon J. Smith
О фильме: Четвёрка пингвинов-шпионов - Шкипер, Ковальски, Рико и Прапор - объединяется с командой «Северный ветер», помогающей беззащитным животным. Им предстоит остановить злобного осьминога, доктора Октавиуса Брайна, желающего уничтожить этот мир...

Страна: США
Студия: DreamWorks Animation, Pacific Data Images
Продолжительность: 01:31:49
Перевод: Профессиональный (дублированный) - Невафильм
Роли дублировали: Анатолий Дубанов, Андрей Шамин, Иван Паршин, Вадим Романов, Максим Матвеев
Файл
Формат: avi
Качество: BDRip (BDRemux)
Видео: XviD, 656x352, 23.976fps, 1000kbps
Аудио: MPEG Layer 3, 2ch, 48000Hz, 128kbps

MediaInfo

General
Complete name : Pingviny.Madagaskara.2014.D.BDRip.700.MediaClub.CurHaJI.avi
Format : AVI
Format/Info : Audio Video Interleave
File size : 747 MiB
Duration : 1h 31mn
Overall bit rate : 1 137 Kbps
Movie name : Pingviny.Madagaskara.2014.D.BDRip.700.MediaClub.CurHaJI
Writing application : Lavf53.13.0
Writing library : VirtualDub build 35491/release
Video
ID : 0
Format : MPEG-4 Visual
Format profile : Advanced Simple@L5
Format settings, BVOP : 2
Format settings, QPel : No
Format settings, GMC : No warppoints
Format settings, Matrix : Custom
Codec ID : XVID
Codec ID/Hint : XviD
Duration : 1h 31mn
Bit rate : 1 000 Kbps
Width : 656 pixels
Height : 352 pixels
Display aspect ratio : 1.85:1
Frame rate : 23.976 fps
Color space : YUV
Chroma subsampling : 4:2:0
Bit depth : 8 bits
Scan type : Progressive
Compression mode : Lossy
Bits/(Pixel*Frame) : 0.181
Stream size : 657 MiB (88%)
Writing library : XviD 64
Audio
ID : 1
Format : MPEG Audio
Format version : Version 1
Format profile : Layer 3
Codec ID : 55
Codec ID/Hint : MP3
Duration : 1h 31mn
Bit rate mode : Constant
Bit rate : 128 Kbps
Channel(s) : 2 channels
Sampling rate : 48.0 KHz
Compression mode : Lossy
Stream size : 84.1 MiB (11%)
Alignment : Split accross interleaves
Interleave, duration : 42 ms (1.00 video frame)
Interleave, preload duration : 500 ms
Writing library : L3.99r
Encoding settings : -m s -V 4 -q 2 -lowpass 17 -b 128

Скриншоты

Релиз от:
[Профиль] [ЛС]
Показать сообщения:    

Текущее время: Сегодня 16:22

Часовой пояс: GMT



Вы не можете начинать темы
Вы не можете отвечать на сообщения
Вы не можете редактировать свои сообщения
Вы не можете удалять свои сообщения
Вы не можете голосовать в опросах
Вы не можете прикреплять файлы к сообщениям
Вы не можете скачивать файлы