Пингвины Мадагаскара в 3Д / Penguins of Madagascar 3D (Эрик Дарнелл, Саймон Дж. Смит / Eric Darnell, Simon J. Smith) [2014, Мультфильм, Комедия, Приключения, Семейный, BDrip-AVC] Half OverUnder / Вертикальная анаморфная стереопара

 
Автор Сообщение

BOSS ®

Пол:

Стаж: 2 года 2 месяца

Сообщений: 3751

Откуда: ODESSA



Награды: 20 (Подробнее)

Top Keeper 2 (Количество: 1) Mega Releaser 2 (Количество: 1) Top Seeder 2 (Количество: 1)
Торрент-статистика

Создавать темы 07-Окт-2015 19:20

[Цитировать]

-Пингвины Мадагаскара
Penguins of Madagascar

Год выпуска: 2014
Страна: США
Жанр: Мультфильм, Комедия, Приключения, Семейный
Продолжительность: 1:31:47
Перевод: Профессиональный (дублированный)
Режиссеры: Эрик Дарнелл, Саймон Дж. Смит / Eric Darnell, Simon J. Smith-Роли озвучивали (дублировали):

Skipper - Том МакГрат (Анатолий Дубанов)
Kowalski - Крис Миллер (Андрей Шамин)
Private - Кристофер Найтс (Иван Паршин)
Rico - Конрад Вернон
Dave - Джон Малкович (Вадим Романов)
Classified - Бенедикт Камбербэтч (Максим Матвеев)
Short Fuse - Кен Жонг (Александр Разбаш)
Eva - Аннет Махендру (Анна Слынько)
Corporal - Петер Стормаре (Владимир Черных)
Mort - Энди Рихтер (Александр Трофимов)
King Julien - Дэнни Джейкобс (Андрей Лёвин)
Documentary Filmmaker - Вернер Херцог (Александр Аравушкин)
-Описание: Четвёрка пингвинов-шпионов — Шкипер, Ковальски, Рико и Прапор — объединяется с командой «Северный ветер», помогающей беззащитным животным. Им предстоит остановить злобного осьминога, доктора Октавиуса Брайна, желающего уничтожить этот мир…-Премьера: 8 ноября 2014 (27 ноября 2014)
Релиз на Blu-Ray (DVD) (Россия): 5 марта 2015
Бюджет: $132 000 000
Кассовые сборы: $362 893 867

. .
За исходный BD 3D спасибо crazy_gringo и
-Качество: BDRip (by Ash61)
Контейнер: MKV
Формат 3D: Half OverUnder / Вертикальная анаморфная стереопара
Порядок ракурсов: левый ракурс первый-Видео: AVC / 23,976 fps / 1920х1080p / ~8.9 Mbps
Аудио:
#1 - Русский / AC3 / 48 KHz / 5.1 ch / 640 Kbps (Дубляж - BD 3D EE)
#2 - Украинский / AC3 / 48 KHz / 5.1 ch / 448 Kbps (Дубляж - BD 3D EE)
#3 - Английский / AC3 / 48 KHz / 5.1 ch / 640 Kbps (Original - BD 3D EE)
Субтитры: (SRT)
Вшитые (softsub):
#1 - Русские Форсированные (включены по умолчанию)
#2 - Русские Полные
#3 - Украинские Форсированные
#4 - Украинские Полные
#5 - English Full (i)
Внешние (UTF-8):
#1 - Русские Форсированные (включены по умолчанию)
#2 - Украинские Форсированные

MediaInfo

General
Unique ID : 218765531460631362008869601886095433654 (0xA494B572DDF5B277AC646A465D1A5FB6)
Complete name : E:\PenguinsOfMadagascar(2014)3D-halfOU(Ash61)\PenguinsOfMadagascar(2014)3D-halfOU(Ash61).mkv
Format : Matroska
Format version : Version 2
File size : 6.98 GiB
Duration : 1h 31mn
Overall bit rate : 10.9 Mbps
Movie name : Пингвины Мадагаскара / Penguins of Madagascar (2014) 3D
Encoded date : UTC 2015-03-02 03:51:44
Writing application : mkvmerge v5.8.0 ('No Sleep / Pillow') built on Sep 2 2012 15:37:04
Writing library : libebml v1.2.3 + libmatroska v1.3.0
Video
ID : 1
Format : AVC
Format/Info : Advanced Video Codec
Format profile : High@L4.1
Format settings, CABAC : Yes
Format settings, ReFrames : 4 frames
Codec ID : V_MPEG4/ISO/AVC
Duration : 1h 31mn
Bit rate : 8 945 Kbps
Width : 1 920 pixels
Height : 1 080 pixels
Display aspect ratio : 16:9
Frame rate mode : Constant
Frame rate : 23.976 fps
Color space : YUV
Chroma subsampling : 4:2:0
Bit depth : 8 bits
Scan type : Progressive
Bits/(Pixel*Frame) : 0.180
Stream size : 5.74 GiB (82%)
Title : BDRip by Ash61
Writing library : x264 core 138 r2358 9e941d1
Encoding settings : cabac=1 / ref=4 / deblock=1:-3:-3 / analyse=0x3:0x113 / me=umh / subme=10 / psy=1 / psy_rd=1.00:0.00 / mixed_ref=1 / me_range=32 / chroma_me=1 / trellis=2 / 8x8dct=1 / cqm=0 / deadzone=21,11 / fast_pskip=1 / chroma_qp_offset=-2 / threads=12 / lookahead_threads=3 / sliced_threads=0 / nr=0 / decimate=1 / interlaced=0 / bluray_compat=0 / constrained_intra=0 / bframes=10 / b_pyramid=2 / b_adapt=2 / b_bias=0 / direct=3 / weightb=1 / open_gop=0 / weightp=2 / keyint=250 / keyint_min=23 / scenecut=40 / intra_refresh=0 / rc_lookahead=60 / rc=crf / mbtree=1 / crf=16.0 / qcomp=0.70 / qpmin=0 / qpmax=69 / qpstep=4 / vbv_maxrate=40000 / vbv_bufsize=30000 / crf_max=0.0 / nal_hrd=none / frame-packing=4 / ip_ratio=1.40 / aq=1:0.70
Language : English
Default : Yes
Forced : No
Audio #1
ID : 2
Format : AC-3
Format/Info : Audio Coding 3
Mode extension : CM (complete main)
Format settings, Endianness : Big
Codec ID : A_AC3
Duration : 1h 31mn
Bit rate mode : Constant
Bit rate : 640 Kbps
Channel(s) : 6 channels
Channel positions : Front: L C R, Side: L R, LFE
Sampling rate : 48.0 KHz
Bit depth : 16 bits
Compression mode : Lossy
Stream size : 420 MiB (6%)
Title : Дубляж - BD 3D EE
Language : Russian
Default : Yes
Forced : No
Audio #2
ID : 3
Format : AC-3
Format/Info : Audio Coding 3
Mode extension : CM (complete main)
Format settings, Endianness : Big
Codec ID : A_AC3
Duration : 1h 31mn
Bit rate mode : Constant
Bit rate : 448 Kbps
Channel(s) : 6 channels
Channel positions : Front: L C R, Side: L R, LFE
Sampling rate : 48.0 KHz
Bit depth : 16 bits
Compression mode : Lossy
Stream size : 294 MiB (4%)
Title : Дубляж - BD 3D EE
Language : Ukrainian
Default : No
Forced : No
Audio #3
ID : 4
Format : AC-3
Format/Info : Audio Coding 3
Mode extension : CM (complete main)
Format settings, Endianness : Big
Codec ID : A_AC3
Duration : 1h 31mn
Bit rate mode : Constant
Bit rate : 640 Kbps
Channel(s) : 6 channels
Channel positions : Front: L C R, Side: L R, LFE
Sampling rate : 48.0 KHz
Bit depth : 16 bits
Compression mode : Lossy
Stream size : 420 MiB (6%)
Title : Original - BD 3D
Language : English
Default : No
Forced : No
Text #1
ID : 5
Format : UTF-8
Codec ID : S_TEXT/UTF8
Codec ID/Info : UTF-8 Plain Text
Title : Форсированные
Language : Russian
Default : Yes
Forced : No
Text #2
ID : 6
Format : UTF-8
Codec ID : S_TEXT/UTF8
Codec ID/Info : UTF-8 Plain Text
Title : Полные
Language : Russian
Default : No
Forced : No
Text #3
ID : 7
Format : UTF-8
Codec ID : S_TEXT/UTF8
Codec ID/Info : UTF-8 Plain Text
Title : Форсированные
Language : Ukrainian
Default : No
Forced : No
Text #4
ID : 8
Format : UTF-8
Codec ID : S_TEXT/UTF8
Codec ID/Info : UTF-8 Plain Text
Title : Полные
Language : Ukrainian
Default : No
Forced : No
Text #5
ID : 9
Format : UTF-8
Codec ID : S_TEXT/UTF8
Codec ID/Info : UTF-8 Plain Text
Title : Full
Language : English
Default : No
Forced : No
Menu
00:00:00.000 : :1
00:03:38.718 : :2
00:07:27.739 : :3
00:09:24.272 : :4
00:12:10.521 : :5
00:16:09.302 : :6
00:19:22.453 : :7
00:23:05.509 : :8
00:26:58.659 : :9
00:29:01.323 : :10
00:30:36.418 : :11
00:34:01.206 : :12
00:38:05.992 : :13
00:41:31.197 : :14
00:44:25.162 : :15
00:46:39.880 : :16
00:49:12.950 : :17
00:54:31.560 : :18
00:56:01.066 : :19
01:00:04.017 : :20
01:03:07.242 : :21
01:06:41.998 : :22
01:09:52.271 : :23
01:12:10.409 : :24
01:14:19.914 : :25
01:15:59.013 : :26
01:18:28.162 : :27
01:20:49.636 : :28

Для оценки 3Д - Анимированные скрины















[Профиль] [ЛС]
Показать сообщения:    

Текущее время: Сегодня 06:26

Часовой пояс: GMT



Вы не можете начинать темы
Вы не можете отвечать на сообщения
Вы не можете редактировать свои сообщения
Вы не можете удалять свои сообщения
Вы не можете голосовать в опросах
Вы не можете прикреплять файлы к сообщениям
Вы не можете скачивать файлы