Пила 3 / Saw III (Даррен Линн Боусман / Darren Lynn Bousman) [2006, США, Канада, ужасы, триллер, криминал, BDRip] [Unrated Director\'s Cut] AVO (Немахов)

 
Автор Сообщение

TorrentFilm ®

Пол:

Стаж: 2 года

Сообщений: 7741



Награды: Нет

Торрент-статистика

Создавать темы 23-Мар-2015 00:02

[Цитировать]

Пила 3 / Saw III [Unrated Director's Cut]- Год выпуска: 2006
Страна: США, Канада
Жанр: ужасы, триллер, криминал
Продолжительность: 02:00:49
Перевод: Авторский одноголосый Ю.Немахов
Cубтитры: нет-Режиссер: Даррен Линн Боусман / Darren Lynn Bousman
В ролях: Тобин Белл, Шоуни Смит, Энгус МакФадьен, Бахар Сумех, Донни Уолберг, Дина Мейер, Ли Уоннелл, Мфо Коахо, Бэрри Флэтмэн, Лайрик Бент
О фильме: Изобретатель зловещих игр остается безнаказанным и в итоге бесследно исчезает вместе со своей сообщницей Амандой. В то время, как детективы тщетно пытаются выйти на его след, доктор Линн Денлон становится очередной жертвой этого маньяка.
Однажды ночью Линн похищают и привозят в заброшенный склад, где она встречается с самим злодеем, находящимся на смертном одре. Ей приказывают сохранять жизнь этому безумцу, пока Джефф, еще одна из его жертв, не доведет до конца начатую с ним «игру»…-Релиз:
Автор: kingsize87
Качество: BDRip (источник: piratca / BD-Remux / 1080p)
Формат: AVI
Видео: 704x384 (1.83:1), 23.976 fps, XviD build 66 ~2126 kbps avg, 0.33 bit/pixel
Аудио: 48 kHz, AC3 Dolby Digital, 3/2 (L,C,R,l,r) + LFE ch, ~448.00 kbps avg
Размер: 2231.14 Mb (1/2 DVD-R)
Скачать: Семпл-

Кадры из фильма


-

Mi

Формат : AVI
Формат/Информация : Audio Video Interleave
Профиль формата : OpenDML
Размер файла : 2,18 Гбайт
Продолжительность : 2 ч. 0 м.
Общий поток : 2582 Кбит/сек
Название фильма : Пила 3 / Saw III [Unrated Director's Cut] (2006) BDRip
Режиссёр : kingsize87
Программа кодирования : VirtualDubMod 1.5.10.2 (build 2540/release)
Правообладатель : HQCLUB
Примечание : 21.03.2015
Видео
Идентификатор : 0
Формат : MPEG-4 Visual
Профиль формата : Advanced Simple@L5
Параметр BVOP формата : 1
Параметр QPel формата : Нет
Параметр GMC формата : Без точки перехода
Параметр матрицы формата : Выборочная
Идентификатор кодека : XVID
Идентификатор кодека/Подсказка : XviD
Продолжительность : 2 ч. 0 м.
Битрейт : 2122 Кбит/сек
Ширина : 704 пикселя
Высота : 384 пикселя
Соотношение сторон : 1,85:1
Частота кадров : 23,976 кадра/сек
Цветовое пространство : YUV
Субдискретизация насыщенности : 4:2:0
Битовая глубина : 8 бит
Тип развёртки : Прогрессивная
Метод сжатия : С потерями
Бит/(Пиксели*Кадры) : 0.327
Размер потока : 1,79 Гбайт (82%)
Библиотека кодирования : XviD 66
Аудио
Идентификатор : 1
Формат : AC-3
Формат/Информация : Audio Coding 3
Расширение режима : CM (complete main)
Параметр Endianness формата : Big
Идентификатор кодека : 2000
Продолжительность : 2 ч. 0 м.
Вид битрейта : Постоянный
Битрейт : 448 Кбит/сек
Каналы : 6 каналов
Расположение каналов : Front: L C R, Side: L R, LFE
Частота : 48,0 КГц
Битовая глубина : 16 бит
Метод сжатия : С потерями
Размер потока : 387 Мбайт (17%)
Выравнивание : Разделение по промежуткам
Продолжительность промежутка : 42 мс. (1,00 видеокадр)
Время предзагрузки промежутка : 500 мс.

-
* За источник большое спасибо Slimka и тому неизвестному сиду, который раздал ремукс.
Цитата:Существуют две режиссерских версии фильма: "Saw III Director's Cut" и "Saw III Unrated Director's Cut".

"Saw III Director's Cut" vs "Saw III Unrated Director's Cut" : ОтличияТем, кто желает сохранить интригу - не читать!

Saw III Director's Cut длиннее обычной версии на 5 минут. Различия:
Сцена, в которой Эрик ломает свою ногу, показана с близкого ракурса
К диалогу Керри и Ригга по поводу Эрика добавлено несколько предложений (Керри говорит, что не может нормально спать из-за его исчезновения)
Когда активируется ловушка Керри, демострируется вид спереди (видно ее внутренние органы)
В морозильнике добавлены сцены, в которых Джефф стучит в дверь, пытаясь выбраться
Когда "Дыба" активируется, ноги и руки Тимоти демонстрируются больше времени. Также во время этой сцены играет музыка, которая отсутствовала в обычной версии фильма.
Немного изменена сцена драки Эрика и Аманды (например, показано, что Аманда слышала, как Эрик зовет Дэниэла, что ее расстраивает).
В конце фильма показывается изуродованная голова Линн, после чего фильм заканчивается
Saw III Unrated Director's Cut длиннее обычной версии на 13 минут.
Была выпущена к выходу фильма Пила 4, ограниченным тиражом.
Различия:
Добавлена сцена драки Аманды и Линн
Добавлена сцена, которая раскрывает, что Аманды видела кошмары по поводу Адама. После этого она решила убить его, чтобы избавить от мучительной смерти. Также из этой сцены становится ясно, что Пила прекрасно знал о том, что Аманда сделала это
В концовке, Джон не успевает включить диктофон. Вместо этого его подбирает Джефф, затем садится возле тела Линн и включает пленку. После этого он кричит и начинаются титры
Последняя пленку почти индентична той, которая звучала в предудущих версиях. Исключение составляет то, что добавлено несколько предложений, а также голос Джона более спокойный и угрожающий
Здесь раздается именно Saw III Unrated Director's Cut!
[Профиль] [ЛС]

Создавать темы 06-Авг-2015 22:40 (спустя 4 месяца 14 дней)

Топик был перенесен из форума Фильмы до 2014 года в форум Фильмы до 2012 года
sergej644
 
Кто просматривает тему:

Показать сообщения:    

Текущее время: Сегодня 10:08

Часовой пояс: GMT



Вы не можете начинать темы
Вы не можете отвечать на сообщения
Вы не можете редактировать свои сообщения
Вы не можете удалять свои сообщения
Вы не можете голосовать в опросах
Вы не можете прикреплять файлы к сообщениям
Вы не можете скачивать файлы