Пик Данте / Dante's Peak (1997) BDRip 1080p | 60 fps

 
Автор Сообщение

sergej644 ®

Пол:

Стаж: 4 года 11 месяцев

Сообщений: 6046

Откуда: Soviet Union



Награды: Нет

Торрент-статистика

Создавать темы 15-Ноя-2014 18:26

[Цитировать]

Пик Данте / Dante's Peak (1997) BDRip 1080p | 60 fps - Год выпуска: 1997
Жанр: Боевик, Триллер, Приключения
Производство: США
Описание фильма:
Ученый-вулканолог Гарри Далтон, потерявший жену во время извержения вулкана, отправляется на Пик Данте, в маленький городок, расположенный на северо-западном побережье, для того, чтобы заняться там рутинной работой — исследованием сейсмической ситуации.
Ученый немедленно обнаруживает тревожные признаки надвигающейся катастрофы, грозящей обернуться концом света. Правительство не обращает внимания на его грозные предупреждения, и лишь мэр городка Пик Данте Рэчел Уэндо, с которой у него завязался роман, осознает весь ужас положения и спешит к нему на помощь.
Режиссер: Роджер Дональдсон
Актеры: Пирс Броснан, Линда Хэмилтон, Джейми Рене Смит, Джереми Фоули, Элизабет Хоффман, Чарльз Хэллахан, Грант Хеслов, Кирк Тратнер, Арабелла Филд, Ци Ма
Продолжительность: 01:48:28
Качество видео: BDRip
Перевод: Двуголосый закадровый
Язык субтитров: Русские (полные), Английские (полные)
Вид субтитров: Вшитые, Отключаемые

Видеокодек: MPEG-4 AVC/H.264
Битрейт видео: ~12600 kb/s
Размер кадра: 1920*808
Аудио 1 Русский: AC3 2.0, 640 kb/s, Двуголосый закадровый, Лицензия
Аудио 2 Английский: AC3 5.1, 640 kb/s
Сэмпл: Ссылка
Автор рипа: Tiberiumsun69

Внимание!

Перед скачиванием обязательно проверьте Сэмпл на своем оборудовании.

Дополнительная информация

Оптимальные настройки http://www.svp-team.com/wiki/Аппаратные_декодеры
В 2,5 раза больше кадров!
В 2,5 раза плавнее! (59,94 fps)
Приятного просмотра. =)

MI

Общее
Уникальный идентификатор : 219754287286607848985686040867309815401 (0xA55322DFEBFA4D6E9DC10276E62B0669)
Полное имя : A:1080p 60fpsПик Данте 1080p 60fps.mkv
Формат : Matroska
Версия формата : Version 4 / Version 2
Размер файла : 10,7 Гбайт
Продолжительность : 1 ч. 48 м.
Общий поток : 14,1 Мбит/сек
Дата кодирования : UTC 2014-07-29 17:08:07
Программа кодирования : mkvmerge v6.9.1 ('Blue Panther') 64bit built on Apr 18 2014 18:23:38
Библиотека кодирования : libebml v1.3.0 + libmatroska v1.4.1
Видео
Идентификатор : 1
Формат : AVC
Формат/Информация : Advanced Video Codec
Профиль формата : High@L4.1
Параметр CABAC формата : Да
Параметр ReFrames формата : 4 кадра
Идентификатор кодека : V_MPEG4/ISO/AVC
Продолжительность : 1 ч. 48 м.
Битрейт : 12,6 Мбит/сек
Ширина : 1920 пикселей
Высота : 808 пикселей
Соотношение сторон : 2,40:1
Режим частоты кадров : Постоянный
Частота кадров : 59,880 кадров/сек
Частота кадров в оригинале : 59,940 кадров/сек
Цветовое пространство : YUV
Субдискретизация насыщенности : 4:2:0
Битовая глубина : 8 бит
Тип развёртки : Прогрессивная
Бит/(Пиксели*Кадры) : 0.135
Размер потока : 9,53 Гбайт (89%)
Библиотека кодирования : x264 core 130 r2273 b3065e6
Настройки программы : cabac=1 / ref=4 / deblock=1:-1:-1 / analyse=0x3:0 / me=umh / subme=9 / psy=1 / psy_rd=1.00:0.10 / mixed_ref=1 / me_range=42 / chroma_me=0 / trellis=2 / 8x8dct=1 / cqm=0 / deadzone=21,11 / fast_pskip=0 / chroma_qp_offset=-3 / threads=12 / lookahead_threads=1 / sliced_threads=0 / nr=0 / decimate=0 / interlaced=0 / bluray_compat=0 / constrained_intra=0 / bframes=5 / b_pyramid=2 / b_adapt=2 / b_bias=0 / direct=1 / weightb=1 / open_gop=0 / weightp=2 / keyint=594 / keyint_min=59 / scenecut=40 / intra_refresh=0 / rc=crf / mbtree=0 / crf=15.0 / qcomp=0.60 / qpmin=0 / qpmax=69 / qpstep=4 / ip_ratio=1.40 / pb_ratio=1.30 / aq=0
Язык : English
Default : Да
Forced : Нет
Аудио #1
Идентификатор : 2
Формат : AC-3
Формат/Информация : Audio Coding 3
Расширение режима : CM (complete main)
Параметр Endianness формата : Big
Идентификатор кодека : A_AC3
Продолжительность : 1 ч. 48 м.
Вид битрейта : Постоянный
Битрейт : 640 Кбит/сек
Каналы : 2 канала
Расположение каналов : Front: L R
Частота : 48,0 КГц
Битовая глубина : 16 бит
Метод сжатия : С потерями
Размер потока : 497 Мбайт (5%)
Заголовок : MVO Лицензия
Язык : Russian
Default : Да
Forced : Нет
Аудио #2
Идентификатор : 3
Формат : AC-3
Формат/Информация : Audio Coding 3
Расширение режима : CM (complete main)
Параметр Endianness формата : Big
Идентификатор кодека : A_AC3
Продолжительность : 1 ч. 48 м.
Вид битрейта : Постоянный
Битрейт : 640 Кбит/сек
Каналы : 6 каналов
Расположение каналов : Front: L C R, Side: L R, LFE
Частота : 48,0 КГц
Битовая глубина : 16 бит
Метод сжатия : С потерями
Размер потока : 497 Мбайт (5%)
Заголовок : Original
Язык : English
Default : Нет
Forced : Нет
Текст #1
Идентификатор : 4
Формат : UTF-8
Идентификатор кодека : S_TEXT/UTF8
Идентификатор кодека/Информация : UTF-8 Plain Text
Заголовок : Full
Язык : Russian
Default : Нет
Forced : Нет
Текст #2
Идентификатор : 5
Формат : UTF-8
Идентификатор кодека : S_TEXT/UTF8
Идентификатор кодека/Информация : UTF-8 Plain Text
Заголовок : Full
Язык : English
Default : Нет
Forced : Нет
Меню
00:00:00.000 : en:Chapter 1
00:03:29.709 : en:Chapter 2
00:05:12.312 : en:Chapter 3
00:06:47.949 : en:Chapter 4
00:10:38.679 : en:Chapter 5
00:12:00.594 : en:Chapter 6
00:14:31.954 : en:Chapter 7
00:18:47.668 : en:Chapter 8
00:20:35.192 : en:Chapter 9
00:25:56.763 : en:Chapter 10
00:27:31.608 : en:Chapter 11
00:29:12.542 : en:Chapter 12
00:30:54.477 : en:Chapter 13
00:34:41.829 : en:Chapter 14
00:36:37.236 : en:Chapter 15
00:38:40.526 : en:Chapter 16
00:44:36.090 : en:Chapter 17
00:46:57.231 : en:Chapter 18
00:50:48.045 : en:Chapter 19
00:52:10.961 : en:Chapter 20
00:54:06.993 : en:Chapter 21
00:55:20.317 : en:Chapter 22
01:01:26.224 : en:Chapter 23
01:04:33.452 : en:Chapter 24
01:06:03.250 : en:Chapter 25
01:08:52.545 : en:Chapter 26
01:11:32.705 : en:Chapter 27
01:14:56.325 : en:Chapter 28
01:17:03.577 : en:Chapter 29
01:18:47.431 : en:Chapter 30
01:20:56.977 : en:Chapter 31
01:23:03.395 : en:Chapter 32
01:27:34.290 : en:Chapter 33
01:29:38.122 : en:Chapter 34
01:32:31.128 : en:Chapter 35
01:35:49.493 : en:Chapter 36
01:38:12.386 : en:Chapter 37
01:40:46.040 : en:Chapter 38
01:48:21.244 : en:Chapter 39
Скриншоты:
[Профиль] [ЛС]
Кто просматривает тему:

Показать сообщения:    

Текущее время: Сегодня 17:42

Часовой пояс: GMT



Вы не можете начинать темы
Вы не можете отвечать на сообщения
Вы не можете редактировать свои сообщения
Вы не можете удалять свои сообщения
Вы не можете голосовать в опросах
Вы не можете прикреплять файлы к сообщениям
Вы не можете скачивать файлы