Пиксели / Pixels (2015) DVD5

 
Автор Сообщение

BOSS ®

Пол:

Стаж: 2 года 1 месяц

Сообщений: 3735

Откуда: ODESSA



Награды: 20 (Подробнее)

Top Seeder 2 (Количество: 1) Top Releaser 4 (Количество: 1) Mega Releaser 1 (Количество: 1)
Торрент-статистика

Создавать темы 02-Ноя-2015 11:48

[Цитировать]

«It's time to save the World»

Год выпуска: 2015
Производство: США, Китай, Канада / Columbia Pictures, 1492 Pictures, China Film Co., Happy Madison Productions
Жанр: Фантастика, боевик, комедия
Режиссер: Крис Коламбус
Продюсеры: Майкл Барнатан, Крис Коламбус, Аллен Коверт
Актеры: Адам Сэндлер, Кевин Джеймс, Мишель Монахэн, Питер Динклэйдж, Джош Гад, Брайан Кокс, Мэттью Линтц, Шон Бин, Джейн Краковски, Дэн Эйкройд
Описание фильма:
Очередное вторжение инопланетян на Землю… Вы скажете: «Что может быть банальнее?!». Да, если бы на этот раз они не предстали в виде героев вселенски популярных компьютерных игр. Сражаться с пришельцами призвана команда бывших геймеров, в числе которых: Президент Соединенных Штатов Америки; карлик-зэк, большой ценитель прекрасного пола; зануда-параноик, свято верящий в теорию вселенского заговора; профессиональный неудачник и циник, в детстве подававший большие надежды. А помогает новоиспеченным героям очаровательная ученая фея.
Перевод: Дублированный
Субтитры: Английские, русские-Дата мировой премьеры: 16 июля 2015
Дата российской премьеры: 23 июля 2015, «WDSSPR»
Дата выхода DVD релиза: 22 октября 2015, «CP Дистрибуция»
-Продолжительность: 01:45:42
Качество видео: DVD5
Видео: MPEG-2, 720x480@853x480 (NTSC 16:9), ~5100 Кбит/сек
Аудио 1: AC3 5.1, 448 Кбит/сек [Английский - оригинал]
Аудио 2: AC3 5.1, 448 Кбит/сек [Русский - дублированный]

DVDInfo:

Title: Pixels (2015) DVD5 NTSC
Size: 4.37 Gb ( 4 581 188,00 KBytes ) - DVD-5
Enabled regions: 1, 2, 3, 4, 5, 6, 7, 8
VTS_01 :
Play Length: 01:45:42
Video: NTSC 16:9 (720x480) VBR, Auto Letterboxed
Audio:
English (Dolby AC3, 6 ch)
Russian (Dolby AC3, 6 ch)
Subtitles:
English
Russian
Russian
* Menus Information *
VIDEO_TS Menu
Video:
NTSC 16:9 (720x480) VBR
Auto Pan&Scan
Audio:
Not specified (Dolby AC3, 1 ch)
English Language Unit :
Title Menu
VTS_01 Menu
Video:
NTSC 16:9 (720x480) VBR
Auto Pan&Scan
Audio:
Not specified (Dolby AC3, 1 ch)
English Language Unit :
Root Menu
Chapter (PTT) Menu

MediaInfo:

Общее
Полное имя : G:ВидеоPixels (2015) DVD5 NTSCVIDEO_TSVTS_01_2.VOB
Формат : MPEG-PS
Размер файла : 1024 Мбайт
Продолжительность : 23 м.
Режим общего битрейта : Переменный
Общий поток : 6135 Кбит/сек
Видео
Идентификатор : 224 (0xE0)
Формат : MPEG Video
Версия формата : Version 2
Профиль формата : Main@Main
Параметр BVOP формата : Да
Параметр матрицы формата : Выборочная
Параметр GOP формата : Variable
Продолжительность : 23 м.
Вид битрейта : Переменный
Битрейт : 5116 Кбит/сек
Максимальный битрейт : 7079 Кбит/сек
Ширина : 720 пикселей
Высота : 480 пикселей
Соотношение сторон : 16:9
Частота кадров : 23,976 кадра/сек
Стандарт вещания : NTSC
Цветовое пространство : YUV
Субдискретизация насыщенности : 4:2:0
Битовая глубина : 8 бит
Тип развёртки : Прогрессивная
Порядок развёртки : 2:3 Pulldown
Метод сжатия : С потерями
Бит/(Пиксели*Кадры) : 0.617
Временной код первого кадра : 00:25:53:21
Оригинал временного кода : Group of pictures header
Размер потока : 854 Мбайт (83%)
Аудио #1
Идентификатор : 189 (0xBD)-128 (0x80)
Формат : AC-3
Формат/Информация : Audio Coding 3
Расширение режима : CM (complete main)
Параметр Endianness формата : Big
Режим смешивания : DVD-Video
Продолжительность : 23 м.
Вид битрейта : Постоянный
Битрейт : 448 Кбит/сек
Каналы : 6 каналов
Расположение каналов : Front: L C R, Side: L R, LFE
Частота : 48,0 КГц
Битовая глубина : 16 бит
Метод сжатия : С потерями
Задержка видео : -297 мс.
Размер потока : 74,8 Мбайт (7%)
Аудио #2
Идентификатор : 189 (0xBD)-130 (0x82)
Формат : AC-3
Формат/Информация : Audio Coding 3
Расширение режима : CM (complete main)
Параметр Endianness формата : Big
Режим смешивания : DVD-Video
Продолжительность : 23 м.
Вид битрейта : Постоянный
Битрейт : 448 Кбит/сек
Каналы : 6 каналов
Расположение каналов : Front: L C R, Side: L R, LFE
Частота : 48,0 КГц
Битовая глубина : 16 бит
Метод сжатия : С потерями
Задержка видео : -297 мс.
Размер потока : 74,8 Мбайт (7%)
Текст #1
Идентификатор : 189 (0xBD)-32 (0x20)
Формат : RLE
Формат/Информация : Run-length encoding
Режим смешивания : DVD-Video
Продолжительность : 23 м.
Задержка видео : 1 с. 117 мс.
Текст #2
Идентификатор : 189 (0xBD)-33 (0x21)
Формат : RLE
Формат/Информация : Run-length encoding
Режим смешивания : DVD-Video
Продолжительность : 23 м.
Задержка видео : 817 мс.
Меню

Доп. информация:

Исходник: Пиксели / Pixels (2015) DVD9 | Custom
Удалены: доп. материалы, английская звуковая дорожка AC3 2.0 (в меню кнопки затёрты).
Команды диска переписаны заново, оставлен один VTS.
Видео сжато на 14,8%
Меню: статичное, недействующие кнопки затерты и закрыты.
Обработка и сжатие: DVD ReMake Pro + DVD Rebuilder + CCE SP2 [7 проходов] + Работа с меню (Adobe PhotoShop и MuxMan).

Скриншоты меню:

Скриншоты:
[Профиль] [ЛС]
Показать сообщения:    

Текущее время: Сегодня 06:18

Часовой пояс: GMT



Вы не можете начинать темы
Вы не можете отвечать на сообщения
Вы не можете редактировать свои сообщения
Вы не можете удалять свои сообщения
Вы не можете голосовать в опросах
Вы не можете прикреплять файлы к сообщениям
Вы не можете скачивать файлы