Пиксели / Pixels (2015) BDRip 1080p от Ash61 | 3D-Video | halfOU | iTunes

 
Автор Сообщение

Russian Mafia ®

Пол:

Стаж: 1 год 8 месяцев

Сообщений: 4257



Награды: 10 (Подробнее)

Mega Seeder 5 (Количество: 1) Top Releaser 5 (Количество: 1) Mega Seeder 1 (Количество: 1)
Торрент-статистика

Создавать темы 13-Окт-2015 06:02

[Цитировать]

-Пиксели
Pixels
- Год выпуска: 2015
Страна: США, Китай, Канада (Columbia Pictures, Happy Madison Productions, 1492 Pictures)
Жанр: Фантастика, Боевик, Комедия
Продолжительность: 01:45:51
Перевод: Профессиональный дублированный - iTunes
Режиссер: Крис Коламбус / Chris Columbus-Роли исполняли (дублировали):

Brenner - Адам Сэндлер (Сергей Бурунов)
Cooper - Кевин Джеймс (Михаил Георгиу)
Violet - Мишель Монахэн (Ирина Киреева)
Eddie - Питер Динклэйдж (Илья Исаев)
Ludlow - Джош Гад (Данил Щебланов)
Admiral Porter - Брайан Кокс (Александр Новиков)
Corporal Hill (SAS Officer) - Шон Бин (Пётр Иващенко)
First Lady Jane Cooper - Джейн Краковски
1982 Championship MC - Дэн Эйкройд
Lady Lisa - Эшли Бенсон
Serena Willams - Серена Уильямс
-Описание: Очередное вторжение инопланетян на Землю... Вы скажете: «Что может быть банальнее?!». Да, если бы на этот раз они не предстали в виде героев вселенски популярных компьютерных игр. Сражаться с пришельцами призвана команда бывших геймеров, в числе которых: Президент Соединенных Штатов Америки; карлик-зэк, большой ценитель прекрасного пола; зануда-параноик, свято верящий в теорию вселенского заговора; профессиональный неудачник и циник, в детстве подававший большие надежды. А помогает новоиспеченным героям очаровательная ученая фея.

Знаете ли вы, что...

Декорации платформ из игры Donkey Kong были выстроены на площадке Mega Stage студии Pinewood Toronto Studios. Общая высота конструкции составила более 20 метров.
Для съемок фильма разыскали сотни настоящих игровых автоматов. Каждый из них был отремонтирован. Процесс этот был достаточно трудоемким - к каждому автомату приходилось подбирать требуемые наклейки, обновлять короб, вставлять новые жидкокристаллические дисплеи и всю прочую электронную начинку. Прежде чем попасть на съемочную площадку, каждый игровой автомат должен был быть одобрен компанией, которая представляла на рынке соответствующую торговую марку.
Создатели фильма перебрали 222 комбинации различных нарядов и причесок при создании костюма Леди Лизы (вымышленной героини аркадной игры 1980-х под названием Dojo Quest).
Максимальное количество очков набранное в играх в фильме основывалось на реальных рекордах. Набранные Сэмом Бреннером 3 333 360 очков в игре «Pac-Man» - это количество очков, получаемое при идеальном прохождении игры. Впервые такого результата достиг Билли Митчелл (Billy Mitchell). 16 389 548 очков, которые набрал Ладлоу в игре «Centipede», это результат лишь на одно очко превышающий реальный мировой рекорд Джима Шнайдера (Jim Schneider). В игре «Donkey Kong» Эдди набирает 1 068 100 очков – этот результат на 100 очков превышает мировой рекорд Хэнка Чена (Hank Chien).
Персонаж Денниса Акаямы, профессор Иватани, был основан на реальном создателе игры Pac-Man – Тору Иватани (Toru Iwatani).
Дженнифер Энистон отказалась исполнить роль, которую в итоге сыграла Мишель Монахэн.
Фамилия персонажа Джоша Гада – Ламонсофф. Эта фамилия часто встречается в фильмах с Адамом Сэндлером и является отсылкой к его соседу по комнате из колледжа – Эрику Ламонсоффу.

Ошибки в фильме

Начало фильма приходится на знойное лето 1982 года. Юные аркадные геймеры обсуждают поп-звезд, среди которых упоминаются Мадонна и Саманта Фокс. Но дебютный альбом Мадонны вышел годом позже и остался тогда незамеченным и в том же анахроничном 1983-м родители Саманты Фокс только отправили фотографии дочери на конкурс начинающих моделей «Face and Shape of 1983», так что ни о какой музыкальной карьере Саманты речь в то время не шла.
Хотя фильм и называется «Пиксели», но на самом деле атакующие пришельцы состоят из вокселей.
В начале фильма, когда герой Адама Сендлера подключает PS4 к телевизору, на экране TV видно меню консоли, в следующем кадре видно, что шнур HDMI у него в руке и он не подключен к PS4.
На базе, во время подготовки к нападению инопланетян, мальчишка играет в игру The Last of Us, но при смене кадра видно, что DualShock4 не активен, хотя при игре у него должна гореть световая панель.
Премьера: 16 июля 2015 (23 июля 2015)
Релиз на Blu-Ray (DVD) (Россия): 22 октября 2015
Бюджет: 88 000 000 $
Кассовые сборы: $236 698 123


-Качество: BDRip (by Ash61)
Контейнер: MKV
Формат 3D: Half OverUnder / Вертикальная анаморфная стереопара
Порядок ракурсов: левый ракурс первый-Видео: AVC / 23,976 fps / 1920х1080p / ~8.5 Mbps
Аудио:
#1 - Русский / AC3 / 48 KHz / 5.1 ch / 384 Kbps (Дубляж - iTunes)
#2 - Украинский / AC3 / 48 KHz / 2 ch / 256 Kbps (Дубляж - iTunes)
#3 - Английский / AC3 / 48 KHz / 5.1 ch / 640 Kbps (Original - BD 3D)
Субтитры (SRT):
Вшитые (softsub):
#1 - Русские Форсированные (включены по умолчанию) [редакция Ash61]
#2 - Русские Полные
#2 - Украинские Полные
#3 - English Forced
#4 - English Full
Внешние (UTF-8):
#1 - Русские Форсированные (включены по умолчанию) [редакция Ash61]

MediaInfo

General
Unique ID : 235440748520997923384245211770238295047 (0xB1203D2011266826AEEDFB3151AC5C07)
Complete name : E:Pixels(2015)3D-halfOU(Ash61)iTunesPixels(2015)3D-halfOU(Ash61)iTunes.mkv
Format : Matroska
Format version : Version 2
File size : 7.38 GiB
Duration : 1h 45mn
Overall bit rate : 9 988 Kbps
Movie name : Пиксели / Pixels (2015) в 3Д
Encoded date : UTC 2015-10-12 15:01:43
Writing application : mkvmerge v5.8.0 ('No Sleep / Pillow') built on Sep 2 2012 15:37:04
Writing library : libebml v1.2.3 + libmatroska v1.3.0
Video
ID : 1
Format : AVC
Format/Info : Advanced Video Codec
Format profile : High@L4.1
Format settings, CABAC : Yes
Format settings, ReFrames : 4 frames
Codec ID : V_MPEG4/ISO/AVC
Duration : 1h 45mn
Bit rate : 8 509 Kbps
Width : 1 920 pixels
Height : 1 080 pixels
Display aspect ratio : 16:9
Frame rate mode : Constant
Frame rate : 23.976 fps
Color space : YUV
Chroma subsampling : 4:2:0
Bit depth : 8 bits
Scan type : Progressive
Bits/(Pixel*Frame) : 0.171
Stream size : 6.29 GiB (85%)
Title : BDRip by Ash61
Writing library : x264 core 146 r2538 121396c
Encoding settings : cabac=1 / ref=4 / deblock=1:-3:-3 / analyse=0x3:0x113 / me=umh / subme=10 / psy=1 / psy_rd=1.00:0.00 / mixed_ref=1 / me_range=32 / chroma_me=1 / trellis=2 / 8x8dct=1 / cqm=0 / deadzone=21,11 / fast_pskip=1 / chroma_qp_offset=-2 / threads=12 / lookahead_threads=3 / sliced_threads=0 / nr=0 / decimate=1 / interlaced=0 / bluray_compat=0 / constrained_intra=0 / bframes=10 / b_pyramid=2 / b_adapt=2 / b_bias=0 / direct=3 / weightb=1 / open_gop=0 / weightp=2 / keyint=250 / keyint_min=23 / scenecut=40 / intra_refresh=0 / rc_lookahead=60 / rc=crf / mbtree=1 / crf=16.0 / qcomp=0.70 / qpmin=0 / qpmax=69 / qpstep=4 / vbv_maxrate=40000 / vbv_bufsize=30000 / crf_max=0.0 / nal_hrd=none / filler=0 / frame-packing=4 / ip_ratio=1.40 / aq=1:0.70
Language : English
Default : Yes
Forced : No
Audio #1
ID : 2
Format : AC-3
Format/Info : Audio Coding 3
Mode extension : CM (complete main)
Format settings, Endianness : Big
Codec ID : A_AC3
Duration : 1h 45mn
Bit rate mode : Constant
Bit rate : 384 Kbps
Channel(s) : 6 channels
Channel positions : Front: L C R, Side: L R, LFE
Sampling rate : 48.0 KHz
Bit depth : 16 bits
Compression mode : Lossy
Stream size : 291 MiB (4%)
Title : Дубляж - iTunes
Language : Russian
Default : Yes
Forced : No
Audio #2
ID : 3
Format : AC-3
Format/Info : Audio Coding 3
Mode extension : CM (complete main)
Format settings, Endianness : Big
Codec ID : A_AC3
Duration : 1h 45mn
Bit rate mode : Constant
Bit rate : 256 Kbps
Channel(s) : 2 channels
Channel positions : Front: L R
Sampling rate : 48.0 KHz
Bit depth : 16 bits
Compression mode : Lossy
Stream size : 194 MiB (3%)
Title : Дубляж - iTunes
Language : Ukrainian
Default : No
Forced : No
Audio #3
ID : 4
Format : AC-3
Format/Info : Audio Coding 3
Mode extension : CM (complete main)
Format settings, Endianness : Big
Codec ID : A_AC3
Duration : 1h 45mn
Bit rate mode : Constant
Bit rate : 640 Kbps
Channel(s) : 6 channels
Channel positions : Front: L C R, Side: L R, LFE
Sampling rate : 48.0 KHz
Bit depth : 16 bits
Compression mode : Lossy
Stream size : 485 MiB (6%)
Title : Original - BD 3D
Language : English
Default : No
Forced : No
Text #1
ID : 5
Format : UTF-8
Codec ID : S_TEXT/UTF8
Codec ID/Info : UTF-8 Plain Text
Title : Форсированные (редакция Ash61)
Language : Russian
Default : Yes
Forced : No
Text #2
ID : 6
Format : UTF-8
Codec ID : S_TEXT/UTF8
Codec ID/Info : UTF-8 Plain Text
Title : Полные
Language : Russian
Default : No
Forced : No
Text #3
ID : 7
Format : UTF-8
Codec ID : S_TEXT/UTF8
Codec ID/Info : UTF-8 Plain Text
Title : Полные
Language : Ukrainian
Default : No
Forced : No
Text #4
ID : 8
Format : UTF-8
Codec ID : S_TEXT/UTF8
Codec ID/Info : UTF-8 Plain Text
Title : Forced
Language : English
Default : No
Forced : No
Text #5
ID : 9
Format : UTF-8
Codec ID : S_TEXT/UTF8
Codec ID/Info : UTF-8 Plain Text
Title : Full
Language : English
Default : No
Forced : No
Menu
00:00:00.000 : :1
00:04:54.043 : :2
00:10:21.662 : :3
00:14:51.764 : :4
00:19:51.815 : :5
00:26:19.868 : :6
00:32:57.808 : :7
00:40:35.474 : :8
00:47:40.481 : :9
00:52:33.275 : :10
00:58:56.074 : :11
01:05:07.695 : :12
01:09:23.074 : :13
01:18:13.020 : :14
01:27:54.185 : :15
01:33:53.002 : :16

Для оценки 3Д - Анимированные скрины




















[Профиль] [ЛС]
Показать сообщения:    

Текущее время: Сегодня 13:50

Часовой пояс: GMT



Вы не можете начинать темы
Вы не можете отвечать на сообщения
Вы не можете редактировать свои сообщения
Вы не можете удалять свои сообщения
Вы не можете голосовать в опросах
Вы не можете прикреплять файлы к сообщениям
Вы не можете скачивать файлы