(Alternative Rock) Пикник - Левитация (Compilation, 2CD) - 2018 [FLAC, image +.cue, lossless]

 
Author Message

sergej644 ®

Gender:

Longevity: 7 years 5 months

Posts: 7276

Location: Klaipeda



: 9 ()

Mega Seeder 2 (1) Mega Seeder 3 (1) Mega Seeder 4 (1)
Торрент-статистика

Post 01-Mar-2019 12:55

[Quote]

-Пикник - Левитация (Compilation, 2CD)--
Год издания: 2018
Страна: Russia
Жанр: Alternative Rock
Продолжительность: 01:26:10-Лейбл издания: Вектор
Страна-выпуска диска: Russia
Номер по каталогу: VEK-CD-66-Формат: FLAC
Битрейт аудио: Lossless
Тип рипа: image +.cue
Наличие сканов в содержимом раздачи: да
-

Трэклист

CD 1 | 00:47:42


01. Intro (1:50)
02. Летает голова то вверх, то вниз (4:59)
03. Мракобесие и джаз (3:58)
04. Нет берегов (5:12)
05. Египтянин (5:12)
06. Парню 90 лет (4:11)
07. Лакомо и ломко (4:41)
08. Кукла из папье-маше (4:43)
09. Театр абсурда (3:50)
10. От Кореи до Карелии (4:53)
11. Лихие пришли времена (4:13)

CD 2 | 00:38:28


01. Intro (1:09)
02. Чужестранец (3:54)
03. Последний из могикан (5:12)
04. У шамана три руки (3:31)
05. Фиолетово-черный (4:12)
06. Говорит и показывает (4:20)
07. Из мышеловки (4:32)
08. Ой, да не вечер... (4:35)
09. Праздник (4:52)
10. Там на самом на краю земли (2:11)
-

Лог создания рипа

CD 1

Exact Audio Copy V1.3 from 2. September 2016
Отчёт EAC об извлечении, выполненном 27. февраля 2019, 23:49
Пикник / Левитация
Дисковод: Optiarc DVD RW AD-5240S   Adapter: 1  ID: 0
Режим чтения                 : Достоверность
Использование точного потока : Да
Отключение кэша аудио        : Да
Использование указателей C2  : Нет
Коррекция смещения при чтении                     : 48
Способность читать области Lead-in и Lead-out     : Нет
Заполнение пропущенных сэмплов тишиной            : Да
Удаление блоков с тишиной в начале и конце        : Нет
При вычислениях CRC использовались нулевые сэмплы : Да
Интерфейс                                         : Встроенный Win32-интерфейс для Win NT/2000
Выходной формат          : Пользовательский кодировщик
Выбранный битрейт        : 1024 kBit/s
Качество                 : Высокий
Добавление ID3-тега      : Нет
Утилита сжатия           : C:\Program Files (x86)\Exact Audio Copy\Flac\flac.exe
Дополнительные параметры : -V -8 -T "Date=%year%" -T "Genre=%genre%" %source%
TOC извлечённого CD
     Трек |   Старт  | Длительность | Начальный сектор | Конечный сектор
    ---------------------------------------------------------------------
       1  |  0:00.00 |    1:49.67   |           0      |       8241
       2  |  1:49.67 |    4:58.66   |        8242      |      30657
       3  |  6:48.58 |    3:57.62   |       30658      |      48494
       4  | 10:46.45 |    5:11.61   |       48495      |      71880
       5  | 15:58.31 |    5:12.24   |       71881      |      95304
       6  | 21:10.55 |    4:10.43   |       95305      |     114097
       7  | 25:21.23 |    4:40.49   |      114098      |     135146
       8  | 30:01.72 |    4:42.52   |      135147      |     156348
       9  | 34:44.49 |    3:50.14   |      156349      |     173612
      10  | 38:34.63 |    4:53.24   |      173613      |     195611
      11  | 43:28.12 |    4:13.31   |      195612      |     214617
Характеристики диапазона извлечения и сообщения об ошибках
Выбранный диапазон
     Имя файла E:\Work\Пикник - Левитация CD1.wav
     Пиковый уровень 99.3 %
     Скорость извлечения 4.1 X
     Качество диапазона 100.0 %
     CRC теста 76762E89
     CRC копии 76762E89
     Копирование... OK
Ошибок не произошло
AccurateRip: сводка
Трек  1  отсутствует в базе данных
Трек  2  отсутствует в базе данных
Трек  3  отсутствует в базе данных
Трек  4  отсутствует в базе данных
Трек  5  отсутствует в базе данных
Трек  6  отсутствует в базе данных
Трек  7  отсутствует в базе данных
Трек  8  отсутствует в базе данных
Трек  9  отсутствует в базе данных
Трек 10  отсутствует в базе данных
Трек 11  отсутствует в базе данных
Ни одного трека нет в базе AccurateRip
Конец отчёта

CD 2

Exact Audio Copy V1.3 from 2. September 2016
Отчёт EAC об извлечении, выполненном 28. февраля 2019, 0:23
Пикник / Левитация
Дисковод: Optiarc DVD RW AD-5240S   Adapter: 1  ID: 0
Режим чтения                 : Достоверность
Использование точного потока : Да
Отключение кэша аудио        : Да
Использование указателей C2  : Нет
Коррекция смещения при чтении                     : 48
Способность читать области Lead-in и Lead-out     : Нет
Заполнение пропущенных сэмплов тишиной            : Да
Удаление блоков с тишиной в начале и конце        : Нет
При вычислениях CRC использовались нулевые сэмплы : Да
Интерфейс                                         : Встроенный Win32-интерфейс для Win NT/2000
Выходной формат          : Пользовательский кодировщик
Выбранный битрейт        : 1024 kBit/s
Качество                 : Высокий
Добавление ID3-тега      : Нет
Утилита сжатия           : C:\Program Files (x86)\Exact Audio Copy\Flac\flac.exe
Дополнительные параметры : -V -8 -T "Date=%year%" -T "Genre=%genre%" %source%
TOC извлечённого CD
     Трек |   Старт  | Длительность | Начальный сектор | Конечный сектор
    ---------------------------------------------------------------------
       1  |  0:00.00 |    1:08.73   |           0      |       5172
       2  |  1:08.73 |    3:54.25   |        5173      |      22747
       3  |  5:03.23 |    5:12.10   |       22748      |      46157
       4  | 10:15.33 |    3:30.74   |       46158      |      61981
       5  | 13:46.32 |    4:11.49   |       61982      |      80855
       6  | 17:58.06 |    4:19.54   |       80856      |     100334
       7  | 22:17.60 |    4:32.25   |      100335      |     120759
       8  | 26:50.10 |    4:35.17   |      120760      |     141401
       9  | 31:25.27 |    4:52.21   |      141402      |     163322
      10  | 36:17.48 |    2:10.56   |      163323      |     173128
Характеристики диапазона извлечения и сообщения об ошибках
Выбранный диапазон
     Имя файла E:\Work\Пикник - Левитация CD2.wav
     Пиковый уровень 99.9 %
     Скорость извлечения 3.9 X
     Качество диапазона 99.9 %
     CRC теста 969601B2
     CRC копии 969601B2
     Копирование... OK
Ошибок не произошло
AccurateRip: сводка
Трек  1  отсутствует в базе данных
Трек  2  отсутствует в базе данных
Трек  3  отсутствует в базе данных
Трек  4  отсутствует в базе данных
Трек  5  отсутствует в базе данных
Трек  6  отсутствует в базе данных
Трек  7  отсутствует в базе данных
Трек  8  отсутствует в базе данных
Трек  9  отсутствует в базе данных
Трек 10  отсутствует в базе данных
Ни одного трека нет в базе AccurateRip
Конец отчёта

Индексная карта (non-compilant .cue)

CD 1

REM GENRE Rock
REM DATE 2018
REM DISCID 730B2D0B
REM COMMENT "ExactAudioCopy v1.3"
PERFORMER "Пикник"
TITLE "Левитация"
REM COMPOSER ""
FILE "Пикник - Левитация CD1.flac" WAVE
  TRACK 01 AUDIO
    TITLE "Intro"
    PERFORMER "Пикник"
    REM COMPOSER ""
    FLAGS DCP
    INDEX 01 00:00:00
  TRACK 02 AUDIO
    TITLE "Летает голова то вверх, то вниз"
    PERFORMER "Пикник"
    REM COMPOSER ""
    FLAGS DCP
    INDEX 00 01:47:67
    INDEX 01 01:49:67
  TRACK 03 AUDIO
    TITLE "Мракобесие и джаз"
    PERFORMER "Пикник"
    REM COMPOSER ""
    FLAGS DCP
    INDEX 00 06:46:58
    INDEX 01 06:48:58
  TRACK 04 AUDIO
    TITLE "Нет берегов"
    PERFORMER "Пикник"
    REM COMPOSER ""
    FLAGS DCP
    INDEX 00 10:44:45
    INDEX 01 10:46:45
  TRACK 05 AUDIO
    TITLE "Египтянин"
    PERFORMER "Пикник"
    REM COMPOSER ""
    FLAGS DCP
    INDEX 00 15:56:31
    INDEX 01 15:58:31
  TRACK 06 AUDIO
    TITLE "Парню 90 лет"
    PERFORMER "Пикник"
    REM COMPOSER ""
    FLAGS DCP
    INDEX 00 21:08:55
    INDEX 01 21:10:55
  TRACK 07 AUDIO
    TITLE "Лакомо и ломко"
    PERFORMER "Пикник"
    REM COMPOSER ""
    FLAGS DCP
    INDEX 00 25:19:23
    INDEX 01 25:21:23
  TRACK 08 AUDIO
    TITLE "Кукла из папье-маше"
    PERFORMER "Пикник"
    REM COMPOSER ""
    FLAGS DCP
    INDEX 00 29:59:72
    INDEX 01 30:01:72
  TRACK 09 AUDIO
    TITLE "Театр абсурда"
    PERFORMER "Пикник"
    REM COMPOSER ""
    FLAGS DCP
    INDEX 00 34:42:49
    INDEX 01 34:44:49
  TRACK 10 AUDIO
    TITLE "От Кореи до Карелии"
    PERFORMER "Пикник"
    REM COMPOSER ""
    FLAGS DCP
    INDEX 00 38:32:63
    INDEX 01 38:34:63
  TRACK 11 AUDIO
    TITLE "Лихие пришли времена"
    PERFORMER "Пикник"
    REM COMPOSER ""
    FLAGS DCP
    INDEX 00 43:26:12
    INDEX 01 43:28:12

CD 2

REM GENRE Rock
REM DATE 2018
REM DISCID 7F09040A
REM COMMENT "ExactAudioCopy v1.3"
PERFORMER "Пикник"
TITLE "Левитация"
REM COMPOSER ""
FILE "Пикник - Левитация CD2.flac" WAVE
  TRACK 01 AUDIO
    TITLE "Intro"
    PERFORMER "Пикник"
    REM COMPOSER ""
    FLAGS DCP
    INDEX 01 00:00:00
  TRACK 02 AUDIO
    TITLE "Чужестранец"
    PERFORMER "Пикник"
    REM COMPOSER ""
    FLAGS DCP
    INDEX 00 01:06:73
    INDEX 01 01:08:73
  TRACK 03 AUDIO
    TITLE "Последний из могикан"
    PERFORMER "Пикник"
    REM COMPOSER ""
    FLAGS DCP
    INDEX 00 05:01:23
    INDEX 01 05:03:23
  TRACK 04 AUDIO
    TITLE "У шамана три руки"
    PERFORMER "Пикник"
    REM COMPOSER ""
    FLAGS DCP
    INDEX 00 10:13:33
    INDEX 01 10:15:33
  TRACK 05 AUDIO
    TITLE "Фиолетово-черный"
    PERFORMER "Пикник"
    REM COMPOSER ""
    FLAGS DCP
    INDEX 00 13:44:32
    INDEX 01 13:46:32
  TRACK 06 AUDIO
    TITLE "Говорит и показывает"
    PERFORMER "Пикник"
    REM COMPOSER ""
    FLAGS DCP
    INDEX 00 17:56:06
    INDEX 01 17:58:06
  TRACK 07 AUDIO
    TITLE "Из мышеловки"
    PERFORMER "Пикник"
    REM COMPOSER ""
    FLAGS DCP
    INDEX 00 22:15:60
    INDEX 01 22:17:60
  TRACK 08 AUDIO
    TITLE "Ой, да не вечер..."
    PERFORMER "Пикник"
    REM COMPOSER ""
    FLAGS DCP
    INDEX 00 26:48:10
    INDEX 01 26:50:10
  TRACK 09 AUDIO
    TITLE "Праздник"
    PERFORMER "Пикник"
    REM COMPOSER ""
    FLAGS DCP
    INDEX 00 31:23:27
    INDEX 01 31:25:27
  TRACK 10 AUDIO
    TITLE "Там на самом на краю земли"
    PERFORMER "Пикник"
    REM COMPOSER ""
    FLAGS DCP
    INDEX 00 36:15:48
    INDEX 01 36:17:48
--
[Profile] [PM]
Display posts from previous:    

The time now is: Today 11:47

All times are GMT



You cannot post new topics in this forum
You cannot reply to topics in this forum
You cannot edit your posts in this forum
You cannot delete your posts in this forum
You cannot vote in polls in this forum
You cannot attach files in this forum
You cannot download files in this forum