(Rock) Пикник - Большая игра (3CD) - 2015 [FLAC, image +.cue, lossless]

 
Автор Сообщение

sergej644 ®

Пол:

Стаж: 4 года 11 месяцев

Сообщений: 6041

Откуда: Soviet Union



Награды: Нет

Торрент-статистика

Создавать темы 28-Янв-2016 10:21

[Цитировать]

-Пикник - Большая игра (3CD)-- Год издания: 2015
Страна: Russia
Жанр: Rock
Продолжительность: 06:32:55-Лейбл издания: ООО Вектор
Страна-выпуска диска: Russia
Номер по каталогу: VEK-CD-(32-34)-Формат: FLAC
Битрейт аудио: Lossless
Тип рипа: image +.cue
Наличие сканов в содержимом раздачи: да
-

Трэклист

CD 1 | 02:07:16


01. Большая игра (03:55)
02. Нет берегов (05:10)
03. Египтянин (05:11)
04. Немного огня (04:07)
05. Скользить по земле (04:55)
06. Сердце бъется на три четверти (04:32)
07. Шарманка (05:07)
08. Песня эмигранта (03:09)
09. Ни твое, ни мое (04:20)
10. Декаданс (04:24)
11. От Кореи до Карелии (04:52)
12. Предчувствие (01:39)
13. Серебра!!! (04:21)
14. Фиолетово-черный (04:10)
15. Смутные дни (03:53)
01. Большая игра (03:55)
02. Нет берегов (05:10)
03. Египтянин (05:11)
04. Немного огня (04:07)
05. Скользить по земле (04:55)
06. Сердце бъется на три четверти (04:32)
07. Шарманка (05:07)
08. Песня эмигранта (03:09)
09. Ни твое, ни мое (04:20)
10. Декаданс (04:24)
11. От Кореи до Карелии (04:52)
12. Предчувствие (01:39)
13. Серебра!!! (04:21)
14. Фиолетово-черный (04:10)
15. Смутные дни (03:53)

CD 2 | 02:09:59


01. Мать Земля (03:15)
02. Падший ангел - сын греха (03:28)
03. Я невидим (06:05)
04. Вот же это слово (03:53)
05. Игла (04:31)
06. Нигредо (04:34)
07. А учили меня летать (04:28)
08. Иероглиф (06:17)
09. Я - пущенная стрела (04:44)
10. Чужестранец (03:53)
11. Недобитый романтик (04:13)
12. Афродита из пены и щелочи (04:30)
13. С тех пор, как сгорели дома (05:06)
14. Лицо (03:58)
15. Там, на самом на краю Земли (02:11)
01. Мать Земля (03:15)
02. Падший ангел - сын греха (03:28)
03. Я невидим (06:05)
04. Вот же это слово (03:53)
05. Игла (04:31)
06. Нигредо (04:34)
07. А учили меня летать (04:28)
08. Иероглиф (06:17)
09. Я - пущенная стрела (04:44)
10. Чужестранец (03:53)
11. Недобитый романтик (04:13)
12. Афродита из пены и щелочи (04:30)
13. С тех пор, как сгорели дома (05:06)
14. Лицо (03:58)
15. Там, на самом на краю Земли (02:11)

CD 3 | 02:15:41


01. Потерянный (03:55)
02. Мы, как трепетные птицы (05:24)
03. Лихорадка (05:25)
04. Лишь влюбленному вампиру (05:38)
05. У шамана три руки (03:32)
06. Фетиш (02:48)
07. Пентакль (05:05)
08. Твое сердце должно быть моим (04:18)
09. Интересно (05:39)
10. Телефон (04:58)
11. Королевство кривых (04:51)
12. Еще один дождь (04:37)
13. Не в опере венской (03:51)
14. Романс (02:25)
15. На луче (05:32)
01. Потерянный (03:55)
02. Мы, как трепетные птицы (05:24)
03. Лихорадка (05:25)
04. Лишь влюбленному вампиру (05:38)
05. У шамана три руки (03:32)
06. Фетиш (02:48)
07. Пентакль (05:05)
08. Твое сердце должно быть моим (04:18)
09. Интересно (05:39)
10. Телефон (04:58)
11. Королевство кривых (04:51)
12. Еще один дождь (04:37)
13. Не в опере венской (03:51)
14. Романс (02:25)
15. На луче (05:32)
-

Лог создания рипа

CD 1

Exact Audio Copy V1.0 beta 3 from 29. August 2011
Отчёт EAC об извлечении, выполненном 26. января 2016, 21:59
Пикник / Большая игра
Дисковод: Optiarc DVD RW AD-7203S   Adapter: 0  ID: 0
Режим чтения                 : Достоверность
Использование точного потока : Да
Отключение кэша аудио        : Да
Использование указателей C2  : Нет
Коррекция смещения при чтении                     : 48
Способность читать области Lead-in и Lead-out     : Нет
Заполнение пропущенных сэмплов тишиной            : Да
Удаление блоков с тишиной в начале и конце        : Нет
При вычислениях CRC использовались нулевые сэмплы : Да
Интерфейс                                         : Встроенный Win32-интерфейс для Win NT/2000
Выходной формат          : Пользовательский кодировщик
Выбранный битрейт        : 1024 kBit/s
Качество                 : Высокий
Добавление ID3-тега      : Нет
Утилита сжатия           : C:\Program Files (x86)\FLAC\flac.exe
Дополнительные параметры : -V -8 -T "Date=%year%" -T "Genre=%genre%" %source%
TOC извлечённого CD
     Трек |   Старт  | Длительность | Начальный сектор | Конечный сектор
    ---------------------------------------------------------------------
       1  |  0:00.00 |    3:54.32   |           0      |      17581
       2  |  3:54.32 |    5:09.61   |       17582      |      40817
       3  |  9:04.18 |    5:10.24   |       40818      |      64091
       4  | 14:14.42 |    4:06.42   |       64092      |      82583
       5  | 18:21.09 |    4:54.22   |       82584      |     104655
       6  | 23:15.31 |    4:31.29   |      104656      |     125009
       7  | 27:46.60 |    5:06.71   |      125010      |     148030
       8  | 32:53.56 |    3:08.33   |      148031      |     162163
       9  | 36:02.14 |    4:19.26   |      162164      |     181614
      10  | 40:21.40 |    4:23.60   |      181615      |     201399
      11  | 44:45.25 |    4:51.24   |      201400      |     223248
      12  | 49:36.49 |    1:38.47   |      223249      |     230645
      13  | 51:15.21 |    4:20.55   |      230646      |     250200
      14  | 55:36.01 |    4:09.49   |      250201      |     268924
      15  | 59:45.50 |    3:52.21   |      268925      |     286345
Характеристики диапазона извлечения и сообщения об ошибках
Выбранный диапазон
     Имя файла D:\cdRip\Пикник - Большая игра cd1.wav
     Пиковый уровень 100.0 %
     Скорость извлечения 4.4 X
     Качество диапазона 100.0 %
     CRC теста 8F9996DD
     CRC копии 8F9996DD
     Копирование... OK
Ошибок не произошло
AccurateRip: сводка
Трек  1  отсутствует в базе данных
Трек  2  отсутствует в базе данных
Трек  3  отсутствует в базе данных
Трек  4  отсутствует в базе данных
Трек  5  отсутствует в базе данных
Трек  6  отсутствует в базе данных
Трек  7  отсутствует в базе данных
Трек  8  отсутствует в базе данных
Трек  9  отсутствует в базе данных
Трек 10  отсутствует в базе данных
Трек 11  отсутствует в базе данных
Трек 12  отсутствует в базе данных
Трек 13  отсутствует в базе данных
Трек 14  отсутствует в базе данных
Трек 15  отсутствует в базе данных
Ни одного трека нет в базе AccurateRip
Конец отчёта

CD 2

Exact Audio Copy V1.0 beta 3 from 29. August 2011
Отчёт EAC об извлечении, выполненном 26. января 2016, 22:59
Пикник / Пикник - Большая игра cd2
Дисковод: Optiarc DVD RW AD-7203S   Adapter: 0  ID: 0
Режим чтения                 : Достоверность
Использование точного потока : Да
Отключение кэша аудио        : Да
Использование указателей C2  : Нет
Коррекция смещения при чтении                     : 48
Способность читать области Lead-in и Lead-out     : Нет
Заполнение пропущенных сэмплов тишиной            : Да
Удаление блоков с тишиной в начале и конце        : Нет
При вычислениях CRC использовались нулевые сэмплы : Да
Интерфейс                                         : Встроенный Win32-интерфейс для Win NT/2000
Выходной формат          : Пользовательский кодировщик
Выбранный битрейт        : 1024 kBit/s
Качество                 : Высокий
Добавление ID3-тега      : Нет
Утилита сжатия           : C:\Program Files (x86)\FLAC\flac.exe
Дополнительные параметры : -V -8 -T "Date=%year%" -T "Genre=%genre%" %source%
TOC извлечённого CD
     Трек |   Старт  | Длительность | Начальный сектор | Конечный сектор
    ---------------------------------------------------------------------
       1  |  0:00.00 |    3:14.05   |           0      |      14554
       2  |  3:14.05 |    3:27.27   |       14555      |      30106
       3  |  6:41.32 |    6:04.74   |       30107      |      57480
       4  | 12:46.31 |    3:52.66   |       57481      |      74946
       5  | 16:39.22 |    4:30.13   |       74947      |      95209
       6  | 21:09.35 |    4:33.66   |       95210      |     115750
       7  | 25:43.26 |    4:27.65   |      115751      |     135840
       8  | 30:11.16 |    6:16.15   |      135841      |     164055
       9  | 36:27.31 |    4:43.27   |      164056      |     185307
      10  | 41:10.58 |    3:52.25   |      185308      |     202732
      11  | 45:03.08 |    4:12.44   |      202733      |     221676
      12  | 49:15.52 |    4:29.61   |      221677      |     241912
      13  | 53:45.38 |    5:05.28   |      241913      |     264815
      14  | 58:50.66 |    3:57.55   |      264816      |     282645
      15  | 62:48.46 |    2:10.57   |      282646      |     292452
Характеристики диапазона извлечения и сообщения об ошибках
Выбранный диапазон
     Имя файла D:\cdRip\Пикник - Пикник - Большая игра cd2.wav
     Пиковый уровень 99.3 %
     Скорость извлечения 4.4 X
     Качество диапазона 100.0 %
     CRC теста 591E173F
     CRC копии 591E173F
     Копирование... OK
Ошибок не произошло
AccurateRip: сводка
Трек  1  отсутствует в базе данных
Трек  2  отсутствует в базе данных
Трек  3  отсутствует в базе данных
Трек  4  отсутствует в базе данных
Трек  5  отсутствует в базе данных
Трек  6  отсутствует в базе данных
Трек  7  отсутствует в базе данных
Трек  8  отсутствует в базе данных
Трек  9  отсутствует в базе данных
Трек 10  отсутствует в базе данных
Трек 11  отсутствует в базе данных
Трек 12  отсутствует в базе данных
Трек 13  отсутствует в базе данных
Трек 14  отсутствует в базе данных
Трек 15  отсутствует в базе данных
Ни одного трека нет в базе AccurateRip
Конец отчёта

CD 3

Exact Audio Copy V1.0 beta 3 from 29. August 2011
Отчёт EAC об извлечении, выполненном 26. января 2016, 23:39
Пиник / Большая игра cd3
Дисковод: Optiarc DVD RW AD-7203S   Adapter: 0  ID: 0
Режим чтения                 : Достоверность
Использование точного потока : Да
Отключение кэша аудио        : Да
Использование указателей C2  : Нет
Коррекция смещения при чтении                     : 48
Способность читать области Lead-in и Lead-out     : Нет
Заполнение пропущенных сэмплов тишиной            : Да
Удаление блоков с тишиной в начале и конце        : Нет
При вычислениях CRC использовались нулевые сэмплы : Да
Интерфейс                                         : Встроенный Win32-интерфейс для Win NT/2000
Выходной формат          : Пользовательский кодировщик
Выбранный битрейт        : 1024 kBit/s
Качество                 : Высокий
Добавление ID3-тега      : Нет
Утилита сжатия           : C:\Program Files (x86)\FLAC\flac.exe
Дополнительные параметры : -V -8 -T "Date=%year%" -T "Genre=%genre%" %source%
TOC извлечённого CD
     Трек |   Старт  | Длительность | Начальный сектор | Конечный сектор
    ---------------------------------------------------------------------
       1  |  0:00.00 |    3:54.33   |           0      |      17582
       2  |  3:54.33 |    5:23.32   |       17583      |      41839
       3  |  9:17.65 |    5:24.46   |       41840      |      66185
       4  | 14:42.36 |    5:37.33   |       66186      |      91493
       5  | 20:19.69 |    3:31.01   |       91494      |     107319
       6  | 23:50.70 |    2:47.69   |      107320      |     119913
       7  | 26:38.64 |    5:04.14   |      119914      |     142727
       8  | 31:43.03 |    4:17.48   |      142728      |     162050
       9  | 36:00.51 |    5:38.07   |      162051      |     187407
      10  | 41:38.58 |    4:57.30   |      187408      |     209712
      11  | 46:36.13 |    4:50.12   |      209713      |     231474
      12  | 51:26.25 |    4:36.58   |      231475      |     252232
      13  | 56:03.08 |    3:50.74   |      252233      |     269556
      14  | 59:54.07 |    2:24.39   |      269557      |     280395
      15  | 62:18.46 |    5:31.43   |      280396      |     305263
Характеристики диапазона извлечения и сообщения об ошибках
Выбранный диапазон
     Имя файла D:\cdRip\Пиник - Большая игра cd3.wav
     Пиковый уровень 99.5 %
     Скорость извлечения 4.4 X
     Качество диапазона 100.0 %
     CRC теста 84A06361
     CRC копии 84A06361
     Копирование... OK
Ошибок не произошло
AccurateRip: сводка
Трек  1  отсутствует в базе данных
Трек  2  отсутствует в базе данных
Трек  3  отсутствует в базе данных
Трек  4  отсутствует в базе данных
Трек  5  отсутствует в базе данных
Трек  6  отсутствует в базе данных
Трек  7  отсутствует в базе данных
Трек  8  отсутствует в базе данных
Трек  9  отсутствует в базе данных
Трек 10  отсутствует в базе данных
Трек 11  отсутствует в базе данных
Трек 12  отсутствует в базе данных
Трек 13  отсутствует в базе данных
Трек 14  отсутствует в базе данных
Трек 15  отсутствует в базе данных
Ни одного трека нет в базе AccurateRip
Конец отчёта

Индексная карта (non-compilant .cue)

CD 1

REM GENRE Rock
REM DATE 2015
REM DISCID F50EE90F
REM COMMENT "ExactAudioCopy v1.0b3"
PERFORMER "Пикник"
TITLE "Большая игра"
FILE "Пикник - Большая игра cd1.flac" WAVE
  TRACK 01 AUDIO
    TITLE "Большая игра"
    PERFORMER "Пикник"
    INDEX 01 00:00:00
  TRACK 02 AUDIO
    TITLE "Нет берегов"
    PERFORMER "Пикник"
    INDEX 01 03:54:32
  TRACK 03 AUDIO
    TITLE "Египтянин"
    PERFORMER "Пикник"
    INDEX 01 09:04:18
  TRACK 04 AUDIO
    TITLE "Немного огня"
    PERFORMER "Пикник"
    INDEX 01 14:14:42
  TRACK 05 AUDIO
    TITLE "Скользить по земле"
    PERFORMER "Пикник"
    INDEX 01 18:21:09
  TRACK 06 AUDIO
    TITLE "Сердце бъется на три четверти"
    PERFORMER "Пикник"
    INDEX 01 23:15:31
  TRACK 07 AUDIO
    TITLE "Шарманка"
    PERFORMER "Пикник"
    INDEX 01 27:46:60
  TRACK 08 AUDIO
    TITLE "Песня эмигранта"
    PERFORMER "Пикник"
    INDEX 01 32:53:56
  TRACK 09 AUDIO
    TITLE "Ни твое, ни мое"
    PERFORMER "Пикник"
    INDEX 01 36:02:14
  TRACK 10 AUDIO
    TITLE "Декаданс"
    PERFORMER "Пикник"
    INDEX 01 40:21:40
  TRACK 11 AUDIO
    TITLE "От Кореи до Карелии"
    PERFORMER "Пикник"
    INDEX 01 44:45:25
  TRACK 12 AUDIO
    TITLE "Предчувствие"
    PERFORMER "Пикник"
    INDEX 01 49:36:49
  TRACK 13 AUDIO
    TITLE "Серебра!!!"
    PERFORMER "Пикник"
    INDEX 01 51:15:21
  TRACK 14 AUDIO
    TITLE "Фиолетово-черный"
    PERFORMER "Пикник"
    INDEX 01 55:36:01
  TRACK 15 AUDIO
    TITLE "Смутные дни"
    PERFORMER "Пикник"
    INDEX 01 59:45:50

CD 2

REM GENRE Rock
REM DATE 2015
REM DISCID CB0F3B0F
REM COMMENT "ExactAudioCopy v1.0b3"
PERFORMER "Пикник"
TITLE "Большая игра cd2"
FILE "Пикник - Большая игра cd2.flac" WAVE
  TRACK 01 AUDIO
    TITLE "Мать Земля"
    PERFORMER "Пикник"
    INDEX 01 00:00:00
  TRACK 02 AUDIO
    TITLE "Падший ангел - сын греха"
    PERFORMER "Пикник"
    INDEX 01 03:14:05
  TRACK 03 AUDIO
    TITLE "Я невидим"
    PERFORMER "Пикник"
    INDEX 01 06:41:32
  TRACK 04 AUDIO
    TITLE "Вот же это слово"
    PERFORMER "Пикник"
    INDEX 01 12:46:31
  TRACK 05 AUDIO
    TITLE "Игла"
    PERFORMER "Пикник"
    INDEX 01 16:39:22
  TRACK 06 AUDIO
    TITLE "Нигредо"
    PERFORMER "Пикник"
    INDEX 01 21:09:35
  TRACK 07 AUDIO
    TITLE "А учили меня летать"
    PERFORMER "Пикник"
    INDEX 01 25:43:26
  TRACK 08 AUDIO
    TITLE "Иероглиф"
    PERFORMER "Пикник"
    INDEX 01 30:11:16
  TRACK 09 AUDIO
    TITLE "Я - пущенная стрела"
    PERFORMER "Пикник"
    INDEX 01 36:27:31
  TRACK 10 AUDIO
    TITLE "Чужестранец"
    PERFORMER "Пикник"
    INDEX 01 41:10:58
  TRACK 11 AUDIO
    TITLE "Недобитый романтик"
    PERFORMER "Пикник"
    INDEX 01 45:03:08
  TRACK 12 AUDIO
    TITLE "Афродита из пены и щелочи"
    PERFORMER "Пикник"
    INDEX 01 49:15:52
  TRACK 13 AUDIO
    TITLE "С тех пор, как сгорели дома"
    PERFORMER "Пикник"
    INDEX 01 53:45:38
  TRACK 14 AUDIO
    TITLE "Лицо"
    PERFORMER "Пикник"
    INDEX 01 58:50:66
  TRACK 15 AUDIO
    TITLE "Там, на самом на краю Земли"
    PERFORMER "Пикник"
    INDEX 01 62:48:46

CD 3

REM GENRE Rock
REM DATE 2015
REM DISCID CF0FE60F
REM COMMENT "ExactAudioCopy v1.0b3"
PERFORMER "Пикник"
TITLE "Большая игра cd3"
FILE "Пикник - Большая игра cd3.flac" WAVE
  TRACK 01 AUDIO
    TITLE "Потерянный"
    PERFORMER "Пикник"
    INDEX 01 00:00:00
  TRACK 02 AUDIO
    TITLE "Мы, как трепетные птицы"
    PERFORMER "Пикник"
    INDEX 01 03:54:33
  TRACK 03 AUDIO
    TITLE "Лихорадка"
    PERFORMER "Пикник"
    INDEX 01 09:17:65
  TRACK 04 AUDIO
    TITLE "Лишь влюбленному вампиру"
    PERFORMER "Пикник"
    INDEX 01 14:42:36
  TRACK 05 AUDIO
    TITLE "У шамана три руки"
    PERFORMER "Пикник"
    INDEX 01 20:19:69
  TRACK 06 AUDIO
    TITLE "Фетиш"
    PERFORMER "Пикник"
    INDEX 01 23:50:70
  TRACK 07 AUDIO
    TITLE "Пентакль"
    PERFORMER "Пикник"
    INDEX 01 26:38:64
  TRACK 08 AUDIO
    TITLE "Твое сердце должно быть моим"
    PERFORMER "Пикник"
    INDEX 01 31:43:03
  TRACK 09 AUDIO
    TITLE "Интересно"
    PERFORMER "Пикник"
    INDEX 01 36:00:51
  TRACK 10 AUDIO
    TITLE "Телефон"
    PERFORMER "Пикник"
    INDEX 01 41:38:58
  TRACK 11 AUDIO
    TITLE "Королевство кривых"
    PERFORMER "Пикник"
    INDEX 01 46:36:13
  TRACK 12 AUDIO
    TITLE "Еще один дождь"
    PERFORMER "Пикник"
    INDEX 01 51:26:25
  TRACK 13 AUDIO
    TITLE "Не в опере венской"
    PERFORMER "Пикник"
    INDEX 01 56:03:08
  TRACK 14 AUDIO
    TITLE "Романс"
    PERFORMER "Пикник"
    INDEX 01 59:54:07
  TRACK 15 AUDIO
    TITLE "На луче"
    PERFORMER "Пикник"
    INDEX 01 62:18:46
--
[Профиль] [ЛС]
Кто просматривает тему:

Показать сообщения:    

Текущее время: Сегодня 12:49

Часовой пояс: GMT



Вы не можете начинать темы
Вы не можете отвечать на сообщения
Вы не можете редактировать свои сообщения
Вы не можете удалять свои сообщения
Вы не можете голосовать в опросах
Вы не можете прикреплять файлы к сообщениям
Вы не можете скачивать файлы