Пикко / Picco (Филип Кох / Philip Koch) [2010, Германия, криминал, драма, DVDRip] VO (Кошкин)

 
Автор Сообщение

TorrentFilm ®

Пол:

Стаж: 2 года

Сообщений: 7741



Награды: Нет

Торрент-статистика

Создавать темы 15-Авг-2015 00:08

[Цитировать]

Пикко / Picco- Страна: Германия
Жанр: криминал, драма
Год выпуска: 2010
Продолжительность: 01:45:46-Перевод: Одноголосый закадровый Василий Кошкин
Cубтитры: нет-Режиссер: Филип Кох / Philip Koch
В ролях: Константин фон Ящерофф, Джоэль Басман, Фредерик Лау, Мартин Кифер, Леони Бенеш, Райнер Бок, Даниэль Фрипан, Константин Фролов-Описание: Кевин — новичок в молодежной тюрьме, а потому получает прозвище «Пико». Из-за чрезмерной перегруженности тюрьмы, он вынужден делить камеру с Томми, Энди и Марком. Новая жизнь — новые законы. Здесь всегда прав тот, кто сильнее, а угнетение и избиение всегда были явлением повседневным. Но у Кевина никак не получается жить по новым для него правилам, не получается самоутвердиться. Тогда его сосед по камере Томми дает Кевину совет — если он, Кевин, не хочет быть проигравшим, он должен начать боевые действия. В этой системе вы либо жертва, либо преступник.
Присутствует ненормативная лексика.-Сэмпл-Качество видео: DVDRip
Формат видео: AVI
Видео: 656x368 (1.78:1), 25 fps, XviD build 62 ~723 kbps avg, 0.12 bit/pixel
Аудио: 48 kHz, AC3 Dolby Digital, 2/0 (L,R) ch, ~192 kbps

MediaInfo

General
Complete name : E:\Downloads\Picco.2010.VO.avi
Format : AVI
Format/Info : Audio Video Interleave
File size : 700 MiB
Duration : 1h 45mn
Overall bit rate : 926 Kbps
Writing application : VirtualDubMod 1.5.10.2 (build 2540/release)
Writing library : VirtualDubMod build 2540/release
Video
ID : 0
Format : MPEG-4 Visual
Format profile : Advanced Simple@L5
Format settings, BVOP : No
Format settings, QPel : No
Format settings, GMC : No warppoints
Format settings, Matrix : Default (H.263)
Codec ID : XVID
Codec ID/Hint : XviD
Duration : 1h 45mn
Bit rate : 724 Kbps
Width : 656 pixels
Height : 368 pixels
Display aspect ratio : 16:9
Frame rate : 25.000 fps
Color space : YUV
Chroma subsampling : 4:2:0
Bit depth : 8 bits
Scan type : Progressive
Compression mode : Lossy
Bits/(Pixel*Frame) : 0.120
Stream size : 548 MiB (78%)
Writing library : XviD 62
Audio
ID : 1
Format : AC-3
Format/Info : Audio Coding 3
Mode extension : CM (complete main)
Format settings, Endianness : Big
Codec ID : 2000
Duration : 1h 45mn
Bit rate mode : Constant
Bit rate : 192 Kbps
Channel(s) : 2 channels
Channel positions : Front: L R
Sampling rate : 48.0 KHz
Bit depth : 16 bits
Compression mode : Lossy
Stream size : 145 MiB (21%)
Alignment : Split accross interleaves
Interleave, duration : 40 ms (1.00 video frame)
Interleave, preload duration : 500 ms

Скриншот c названием фильма

Скриншоты

[Профиль] [ЛС]

Создавать темы 12-Июн-2016 07:53 (спустя 9 месяцев 28 дней)

Топик был перенесен из форума Фильмы 2011 года в форум Фильмы 2010 года
Russian Mafia
 
Кто просматривает тему:

Показать сообщения:    

Текущее время: Сегодня 10:31

Часовой пояс: GMT



Вы не можете начинать темы
Вы не можете отвечать на сообщения
Вы не можете редактировать свои сообщения
Вы не можете удалять свои сообщения
Вы не можете голосовать в опросах
Вы не можете прикреплять файлы к сообщениям
Вы не можете скачивать файлы