Пианино / The Piano (1993) BDRip 720p by msltel | P, A

 
Автор Сообщение

sergej644 ®

Пол:

Стаж: 4 года 11 месяцев

Сообщений: 6046

Откуда: Soviet Union



Награды: Нет

Торрент-статистика

Создавать темы 10-Фев-2015 14:24

[Цитировать]

Год выпуска: 1993
Страна: Франция, Австралия, Новая Зеландия
Жанр: драма, мелодрама
Продолжительность: 02:00:51
Перевод: Профессиональный двухголосый, авторский
Субтитры: русские, английские (для слабослышащих)
Режиссёр: Джейн Кэмпион
В ролях: Холли Хантер, Харви Кейтель, Сэм Нилл, Анна Пакуин, Керри Уолкер, Женевьева Лемон, Танджия Бэйкер, Йен Мун, Питер Деннетт, Те Уотануи Скипуиз, Пит Смит, Брюс Олпресс, Клифф Кёртис, Карла Рупуа, Махина Тунуи, Хори Ахипене, Гордон Хэтфилд, Мери Бойнтон, Кирстен Бэтли, Таня Берни, Энни Эдвардс, Харина Хааре, Кристина Харимэйт, Стив Канута, П.Дж. Караурия, Сонни Кирикири, Ален Макиха, Грег Мэйор, Нил Мика Гудселл, Гай Моана, Джозеф Отими, Глайнис Параха, Рики Пикеринг, Эру Потака-Дьюис, Лиэн Ранги Генри, Хьюхана Рева, Тамати Райс, Паора Шарплс, Джордж Смоллмэн
Описание: Середина 19-го века. Немая Ада вместе с маленькой дочерью и любимым пианино покидает родную Шотландию и переезжает на другой конец света, в Новую Зеландию, где её ждёт будущий муж Стюарт. Он отказывается доставить в дом пианино, которое остаётся брошенным на берегу. Ада, не говорящая с шести лет, всё же показывает мужу всю глубину своего гнева. Для этой сильной женщины молчание далеко не знак согласия. Сосед Стюарта Бэйнс, похожий на дикаря, привозит пианино, заменяющее Аде голос, к себе домой. Она может получить его назад, но только если будет приходить к Бэйнсу домой и давать ему уроки музыки - по числу клавиш. Эти уроки заведут их в пучину роковых страстей…

Качество: BDRip 720p Сравнение с исходником
Формат: MKV
Видео кодек: H.264
Видео: 1280x720, 7053 Kbps, 23.976 кадра/с, 0.319 bpp
Аудио 1: русский, AC3, 192 kbps, 2 ch, 48 kHz [профессиональный двухголосый, А.Рахленко и Н.Казначеева]
Аудио 2: русский, AC3, 192 kbps, 2 ch, 48 kHz [Профессиональный двухголосый, OPT]
Аудио 3: русский, AC3, 192 kbps, 2 ch, 48 kHz [авторский, Сергей Кузнецов]
Аудио 4: английский, AC3, 192 kbps, 2 ch, 48 kHz [оригинал]
Имеются неименованные главы/чаптеры.

Награды

11 премий Австралийского киноинститута — за фильм, режиссуру, оригинальный сценарий, главные мужскую и женскую роли, работу оператора, художника (Эндрю МакЭлпайн — Andrew McAlpine), костюмы (Джанет Пэттерсон — Janet Patterson), музыку, монтаж (Вероника Жене — Veronika Jenet) и звук (Ли Смит, Тони Джонсон, Гезин Крег, Питер Тауненд, Аннабелл Шиэн — Lee Smith, Tony Johnson, Gethin Creagh, Peter Townend, Annabelle Sheehan), приз Национального совета обозревателей в США за главную женскую роль,
премии «Независимый дух» в США, «Роберт» в Дании и «Золотой жук» в Швеции за лучший иностранный фильм, «Бодиль» в Дании за лучшую неамериканскую ленту, главный приз на операторском фестивале «Камеримаж», премия «Кинема дзюнпо» в Японии за лучшую иностранную картину по итогам 1994 года.
Оскар, 1994 год
Победитель (3):
Лучшая женская роль (Холли Хантер)
Лучшая женская роль второго плана (Анна Пэкуин)
Лучший сценарий
Номинации (5):
Лучший фильм
Лучший режиссер (Джейн Кэмпион)
Лучшая работа оператора
Лучшие костюмы
Лучший монтаж
Золотой глобус, 1994 год
Победитель (1):
Лучшая женская роль (драма) (Холли Хантер)
Номинации (5):
Лучший фильм (драма)
Лучшая женская роль второго плана (Анна Пэкуин)
Лучший режиссер (Джейн Кэмпион)
Лучший сценарий
Лучший саундтрек
Британская академия, 1994 год
Победитель (3):
Лучшая женская роль (Холли Хантер)
Лучшие костюмы
Лучшая работа художника-постановщика
Номинации (7):
Лучший фильм
Лучший оригинальный сценарий
Лучшая работа оператора
Лучший звук
Лучший монтаж
Лучший саундтрек
Премия имени Дэвида Лина за достижения в режиссуре (Джейн Кэмпион)
Сезар, 1994 год
Победитель (1):
Лучший фильм на иностранном языке
Каннский кинофестиваль, 1993 год
Победитель (2):
Золотая пальмовая ветвь
Серебряная премия за лучшую женскую роль (Холли Хантер)

MediaInfo

frame I:968 Avg QP:18.24 size:106002
frame P:33150 Avg QP:19.43 size: 58910
frame B:139734 Avg QP:21.55 size: 32053
Общее
Уникальный идентификатор : 200921374774980197356220298055581863799 (0x97280C9954F4900A895408886FDA8F77)
Полное имя : D:VideoPiano.1993.BDRip.720p.mkv
Формат : Matroska
Версия формата : Version 4 / Version 2
Размер файла : 6,74 Гбайт
Продолжительность : 2 ч. 0 м.
Общий поток : 7980 Кбит/сек
Дата кодирования : UTC 2014-10-12 14:30:38
Программа кодирования : mkvmerge v6.9.1 ('Blue Panther') 64bit built on Apr 18 2014 18:23:38
Библиотека кодирования : libebml v1.3.0 + libmatroska v1.4.1
Видео
Идентификатор : 1
Формат : AVC
Формат/Информация : Advanced Video Codec
Профиль формата : High@L4.1
Параметр CABAC формата : Да
Параметр ReFrames формата : 9 кадров
Идентификатор кодека : V_MPEG4/ISO/AVC
Продолжительность : 2 ч. 0 м.
Битрейт : 7053 Кбит/сек
Ширина : 1280 пикселей
Высота : 720 пикселей
Соотношение сторон : 16:9
Режим частоты кадров : Постоянный
Частота кадров : 23,976 кадра/сек
Цветовое пространство : YUV
Субдискретизация насыщенности : 4:2:0
Битовая глубина : 8 бит
Тип развёртки : Прогрессивная
Бит/(Пиксели*Кадры) : 0.319
Размер потока : 5,95 Гбайт (88%)
Заголовок : BDRip -- STarankov
Библиотека кодирования : x264 core 142 r2431 ac76440
Настройки программы : cabac=1 / ref=9 / deblock=1:-1:-1 / analyse=0x3:0x113 / me=umh / subme=10 / psy=1 / psy_rd=1.00:0.15 / mixed_ref=1 / me_range=32 / chroma_me=1 / trellis=2 / 8x8dct=1 / cqm=0 / deadzone=21,11 / fast_pskip=1 / chroma_qp_offset=-3 / threads=6 / lookahead_threads=1 / sliced_threads=0 / nr=0 / decimate=1 / interlaced=0 / bluray_compat=0 / constrained_intra=0 / bframes=8 / b_pyramid=2 / b_adapt=2 / b_bias=0 / direct=3 / weightb=1 / open_gop=0 / weightp=2 / keyint=230 / keyint_min=23 / scenecut=40 / intra_refresh=0 / rc_lookahead=40 / rc=crf / mbtree=0 / crf=19.1 / qcomp=0.60 / qpmin=0 / qpmax=69 / qpstep=4 / vbv_maxrate=40000 / vbv_bufsize=50000 / crf_max=0.0 / nal_hrd=none / filler=0 / ip_ratio=1.40 / pb_ratio=1.30 / aq=1:1.00
Язык : English
Default : Да
Forced : Нет
Аудио #1
Идентификатор : 2
Формат : AC-3
Формат/Информация : Audio Coding 3
Расширение режима : CM (complete main)
Параметр Endianness формата : Big
Идентификатор кодека : A_AC3
Продолжительность : 2 ч. 0 м.
Вид битрейта : Постоянный
Битрейт : 192 Кбит/сек
Каналы : 2 канала
Расположение каналов : Front: L R
Частота : 48,0 КГц
Битовая глубина : 16 бит
Метод сжатия : С потерями
Размер потока : 166 Мбайт (2%)
Заголовок : DVO (А.Рахленко и Н.Казначеева)
Язык : Russian
Default : Да
Forced : Нет
Аудио #2
Идентификатор : 3
Формат : AC-3
Формат/Информация : Audio Coding 3
Расширение режима : CM (complete main)
Параметр Endianness формата : Big
Идентификатор кодека : A_AC3
Продолжительность : 2 ч. 0 м.
Вид битрейта : Постоянный
Битрейт : 192 Кбит/сек
Каналы : 2 канала
Расположение каналов : Front: L R
Частота : 48,0 КГц
Битовая глубина : 16 бит
Метод сжатия : С потерями
Размер потока : 166 Мбайт (2%)
Заголовок : DVO (OPT)
Язык : Russian
Default : Нет
Forced : Нет
Аудио #3
Идентификатор : 4
Формат : AC-3
Формат/Информация : Audio Coding 3
Расширение режима : CM (complete main)
Параметр Endianness формата : Big
Идентификатор кодека : A_AC3
Продолжительность : 2 ч. 0 м.
Вид битрейта : Постоянный
Битрейт : 192 Кбит/сек
Каналы : 2 канала
Расположение каналов : Front: L R
Частота : 48,0 КГц
Битовая глубина : 16 бит
Метод сжатия : С потерями
Размер потока : 166 Мбайт (2%)
Заголовок : AVO (Сергей Кузнецов)
Язык : Russian
Default : Нет
Forced : Нет
Аудио #4
Идентификатор : 5
Формат : AC-3
Формат/Информация : Audio Coding 3
Расширение режима : CM (complete main)
Параметр Endianness формата : Big
Идентификатор кодека : A_AC3
Продолжительность : 2 ч. 0 м.
Вид битрейта : Постоянный
Битрейт : 192 Кбит/сек
Каналы : 2 канала
Расположение каналов : Front: L R
Частота : 48,0 КГц
Битовая глубина : 16 бит
Метод сжатия : С потерями
Размер потока : 166 Мбайт (2%)
Заголовок : Original
Язык : English
Default : Нет
Forced : Нет
Текст #1
Идентификатор : 6
Формат : UTF-8
Идентификатор кодека : S_TEXT/UTF8
Идентификатор кодека/Информация : UTF-8 Plain Text
Заголовок : русский
Язык : Russian
Default : Нет
Forced : Нет
Текст #2
Идентификатор : 7
Формат : UTF-8
Идентификатор кодека : S_TEXT/UTF8
Идентификатор кодека/Информация : UTF-8 Plain Text
Заголовок : английский (для слабослышащих)
Default : Нет
Forced : Нет
Меню
00:00:00.000 : :Chapter 01
00:10:37.886 : :Chapter 02
00:16:26.777 : :Chapter 03
00:24:25.088 : :Chapter 04
00:32:31.074 : :Chapter 05
00:36:40.406 : :Chapter 06
00:40:16.330 : :Chapter 07
00:47:26.844 : :Chapter 08
00:50:18.765 : :Chapter 09
00:55:00.005 : :Chapter 10
01:04:02.129 : :Chapter 11
01:08:51.836 : :Chapter 12
01:20:49.928 : :Chapter 13
01:30:04.189 : :Chapter 14
01:43:29.203 : :Chapter 15
01:54:01.918 : :Chapter 16
02:00:50.826 : :Chapter 17

Скриншоты (увеличить)

[Профиль] [ЛС]
Показать сообщения:    

Текущее время: Сегодня 16:54

Часовой пояс: GMT



Вы не можете начинать темы
Вы не можете отвечать на сообщения
Вы не можете редактировать свои сообщения
Вы не можете удалять свои сообщения
Вы не можете голосовать в опросах
Вы не можете прикреплять файлы к сообщениям
Вы не можете скачивать файлы