Печать царя Соломона (Владлен Барбэ) [2012, мультфильм, приключения, WEB-DLRip]

 
Автор Сообщение

reversefile ®

Пол:

Стаж: 4 года 5 месяцев

Сообщений: 842

Откуда: ReverseFile.org



Награды: Нет

Торрент-статистика

Создавать темы 21-Июл-2014 18:12

[Цитировать]

Печать царя Соломона Год выпуска: 2012
Страна: Россия
Жанр: мультфильм, приключения
Продолжительность: 01:15:22
Перевод: не требуется
Субтитры: отсутствуют- Режиссёр: Владлен Барбэ- Роли озвучивали: Дмитрий Дюжев, Эдуард Радзюкевич, Владимир Долинский, Александр Головин- Описание: Много веков назад, во времена своего правления, царь Соломон прогневался на могущественного джинна Юсуфа и с помощью колдовства заковал его в глиняный сосуд, скрепив заклятье своим магическим перстнем.
Прошли годы, сменились эпохи, и джинн оказывается на свободе в современной Москве. По невероятному стечению обстоятельств из плена его спасли юный Гекльберри Финн со своим другом, беглым рабом Джимом, силой магии также переместившиеся из Америки XIX века на улицы современного мегаполиса.
Но на этом приключения героев не заканчиваются. Сила перстня столь велика, что сквозь пространство и время Юсуфа преследует древний демон Кишкаш, продолжающий исполнять волю Соломона. Однако, истинная его цель заключается в стремлении обрести могущественный артефакт царя, чтобы погрузить мир в вечную тьму и хаос.
Время решающей битвы стремительно приближается…- - Качество: WEB-DLRip
Формат: AVI
Видео кодек: XviD
Аудио кодек: AC3
Видео: 720x384,(1.88:1), 25 fps, XviD build 50 ~2203 kbps avg, 0.32 bit/pixel
Аудио: 48 kHz, AC3 Dolby Digital, 3/2 (L,C,R,l,r) + LFE ch, ~384 kbps-

MediaInfo

Общее
Полное имя : D:\Im\Печать царя Соломона\Pechat carja Solomona.2012. WEB-DLRip.avi
Формат : AVI
Формат/Информация : Audio Video Interleave
Размер файла : 1,37 Гбайт
Продолжительность : 1 ч. 15 м.
Общий поток : 2598 Кбит/сек
Программа кодирования : VirtualDubMod 1.5.10.3 | www.virtualdub-fr.org || (build 2550/release)
Библиотека кодирования : VirtualDubMod build 2550/release
Видео
Идентификатор : 0
Формат : MPEG-4 Visual
Профиль формата : Advanced Simple@L5
Параметр BVOP формата : 2
Параметр QPel формата : Нет
Параметр GMC формата : Без точки перехода
Параметр матрицы формата : Default (MPEG)
Идентификатор кодека : XVID
Идентификатор кодека/Подсказка : XviD
Продолжительность : 1 ч. 15 м.
Битрейт : 2204 Кбит/сек
Ширина : 720 пикселей
Высота : 384 пикселя
Соотношение сторон : 1,875
Частота кадров : 25,000 кадров/сек
Цветовое пространство : YUV
Субдискретизация насыщенности : 4:2:0
Битовая глубина : 8 бит
Тип развёртки : Прогрессивная
Метод сжатия : С потерями
Бит/(Пиксели*Кадры) : 0.319
Размер потока : 1,16 Гбайт (85%)
Библиотека кодирования : XviD 1.2.1 (UTC 2008-12-04)
Аудио
Идентификатор : 1
Формат : AC-3
Формат/Информация : Audio Coding 3
Расширение режима : CM (complete main)
Идентификатор кодека : 2000
Продолжительность : 1 ч. 15 м.
Вид битрейта : Постоянный
Битрейт : 384 Кбит/сек
Каналы : 6 каналов
Расположение каналов : Front: L C R, Side: L R, LFE
Частота : 48,0 КГц
Битовая глубина : 16 бит
Метод сжатия : С потерями
Размер потока : 207 Мбайт (15%)
Выравнивание : Разделение по промежуткам
Продолжительность промежутка : 40 мс. (1,00 видеокадр)
Время предзагрузки промежутка : 500 мс.
[Профиль] [ЛС]
Кто просматривает тему:

Форум Тема Автор Размер
Компьютерная литература Андрианов В. - Десятипальцевый метод печати на компьютере. 2-е издание (2014) PDF Garik014 16 MB
Любовные романы и эротика За семью печатями (Сандра Браун) [2014, Любовный роман, аудиокнига, MP3, 96 kbps, Валерия Лебедева] Magnat 729 MB
Приключения, Квесты, Логические За семью печатями 12. Ключ к Равенхерсту. Коллекционное издание (2015) PC достали все 1009 MB
Приключения, Квесты, Логические За семью печатями 13. Открытие Равенхарста. Коллекционное издание (2015) PC достали все 942 MB
Приключения, Квесты, Логические За семью печатями. Разгадка Равенхерста. Коллекционное издание (2015) PC достали все 912 MB
Приключения, Квесты, Логические Не для печати 4: Камень свободы / Off the Record 4: Liberty Stone CE (2015) PС достали все 687 MB
Приключения, Квесты, Логические Не для печати 5: Последнее интервью / Off the Record 5: The Final Interview CE (2016) PС достали все 832 MB
Фильмы (HD DVD, Blu-ray и BDRemux) Отпечатки / Le orme (1975) BDRemux 1080p | P2 Russian Mafia 25.72 GB
Показать сообщения:    

Текущее время: Сегодня 12:31

Часовой пояс: GMT



Вы не можете начинать темы
Вы не можете отвечать на сообщения
Вы не можете редактировать свои сообщения
Вы не можете удалять свои сообщения
Вы не можете голосовать в опросах
Вы не можете прикреплять файлы к сообщениям
Вы не можете скачивать файлы