Печальный соблазн / Соблазнительная синева / Blue Seduction (Тимоти Бонд / Timothy Bond) [2009, Канада, Триллер, SATRip] MVO (АртТВ)

 
Автор Сообщение

painkiller ®

Стаж: 2 года 3 месяца

Сообщений: 582



Награды: Нет

Торрент-статистика

Создавать темы 15-Авг-2014 10:16

[Цитировать]

Печальный соблазн / Соблазнительная синева / Blue Seduction
Страна: Канада
Жанр: Триллер
Год выпуска: 2009
Продолжительность: 01:26:10
Перевод: Профессиональный (многоголосый закадровый) АртТВ
Cубтитры: нет
Режиссер: Тимоти Бонд / Timothy Bond
В ролях: Билли Зейн, Эстелла Уоррен, Джош Линтон, Мэнди Маклин, Пол Ф. МакКарти, Бунтиви Ну, Робби О`Нейлл, Латеша Рэйлзбэк, Бернар Робишо, Элизабет Стивенс, Джейн Вилер
Описание: Музыкант средних лет попадает под чары обольстительной сексуальной вокалистки, которая ищет собственные 15 секунд славы. Микки Тейлор, когда-то очень популярный солист известной группы "Святые", жил жизнью полной наркотиков и рок-н-ролла пока не встретил свою будущую жену Джойс, работающую брокером в крупной компании...
Доп. информация: За фильм спасибо alenavova
Эксклюзив для ....... При размещении данного релиза на других сайтах ссылка на автора alenavova обязательна.

Сэмпл: http://yadi.sk/d/cA-xKnmoQXDpS
Качество видео: SATRip
Формат видео: AVI
Видео: 704x400 (1.76:1), 25 fps, XviD build 50 ~2150 kbps avg, 0.30 bit/pixel
Аудио: 48 kHz, AC3 Dolby Digital, 2/0 (L,R) ch, ~192 kbps

MediaInfo

Печальный соблазн - Blue Seduction (by alenavova).avi
Format : AVI
Format/Info : Audio Video Interleave
File size : 1.42 GiB
Duration : 1h 26mn
Overall bit rate : 2 352 Kbps
Movie name : Печальный соблазн - Blue Seduction (АртТВ)
Director : Rip by alenavova
Writing application : VirtualDubMod 1.5.10.3 | www.virtualdub-fr.org || (build 2550/release)
Copyright : Edich2
Comment : RuTracker.org
Video
ID : 0
Format : MPEG-4 Visual
Format profile : Advanced Simple@L5
Format settings, BVOP : 2
Format settings, QPel : No
Format settings, GMC : No warppoints
Format settings, Matrix : Custom
Codec ID : XVID
Codec ID/Hint : XviD
Duration : 1h 26mn
Bit rate : 2 150 Kbps
Width : 704 pixels
Height : 400 pixels
Display aspect ratio : 16:9
Frame rate : 25.000 fps
Color space : YUV
Chroma subsampling : 4:2:0
Bit depth : 8 bits
Scan type : Progressive
Compression mode : Lossy
Bits/(Pixel*Frame) : 0.305
Stream size : 1.29 GiB (91%)
Writing library : XviD 1.2.1 (UTC 2008-12-04)
Audio
ID : 1
Format : AC-3
Format/Info : Audio Coding 3
Mode extension : CM (complete main)
Format settings, Endianness : Big
Codec ID : 2000
Duration : 1h 26mn
Bit rate mode : Constant
Bit rate : 192 Kbps
Channel count : 2 channels
Channel positions : Front: L R
Sampling rate : 48.0 KHz
Bit depth : 16 bits
Compression mode : Lossy
Stream size : 118 MiB (8%)
Alignment : Split accross interleaves
Interleave, duration : 40 ms (1.00 video frame)
Interleave, preload duration : 500 ms

Скриншоты


[Профиль] [ЛС]

Создавать темы 06-Авг-2015 23:11 (спустя 11 месяцев 22 дня)

Топик был перенесен из форума Фильмы до 2014 года в форум Фильмы до 2012 года
sergej644
 

Создавать темы 12-Июн-2016 08:48 (спустя 1 год 9 месяцев)

Топик был перенесен из форума Фильмы 2011 года в форум Фильмы 2009 года
Russian Mafia
 
Показать сообщения:    

Текущее время: Сегодня 11:54

Часовой пояс: GMT



Вы не можете начинать темы
Вы не можете отвечать на сообщения
Вы не можете редактировать свои сообщения
Вы не можете удалять свои сообщения
Вы не можете голосовать в опросах
Вы не можете прикреплять файлы к сообщениям
Вы не можете скачивать файлы