Печальная баллада для трубы / Balada triste de trompeta (Алекс де ла Иглесиа / Álex de la Iglesia) [2010, Испания, Франция , драма, комедия, BDRip] AVO (Живов)

 
Автор Сообщение

TorrentFilm ®

Пол:

Стаж: 2 года

Сообщений: 7741



Награды: Нет

Торрент-статистика

Создавать темы 24-Апр-2015 00:03

[Цитировать]

Печальная баллада для трубы / Balada triste de trompeta Страна: Испания, Франция
Жанр: драма, комедия
Год выпуска: 2010
Продолжительность: 01:45:10
Перевод: Авторский (одноголосый закадровый) Юрий Живов
Cубтитры: нет
Режиссер: Алекс де ла Иглесиа / Álex de la Iglesia
В ролях: Карлос Аресес, Антонио де ла Торре, Каролина Банг, Мануэль Таллафе, Алехандро Техериас, Хосе Мануэль Сервино, Мануэль Техада, Пако Сагарзазу
Описание: Цирковые обезьяны истошно вопят в своих клетках, а снаружи люди умирают и убивают друг друга. Это еще один цирк — Испанская гражданская война. Против своей воли Рыжий клоун призывается в ряды народного ополчения и принимает участие в кровавой бойне. В бой против солдат Национальной гвардии он идет, вооруженный мачете и одетый в шутовской наряд.
Много лет спустя, во времена диктатора Франко, Хавьер, сын того рыжего клоуна, находит работу Белого (печального) клоуна в цирке, населенном удивительными персонажами. Теперь он дружит с человеком-пушечное ядро и сварливой семейной парой дрессировщиков собак, а на арене становится партнером Рыжего клоуна Серхио.
Сердце этой истории — запутанный любовный треугольник, в котором Хавьер и Серхио, подогреваемые страстью и ненавистью друг к другу, пытаются завоевать любовь самой красивой женщины цирка. Каждый из них готов принять смерть, но не поражение в битве за роковую красавицу.

Качество видео: ВDRip
Формат видео: AVI
Видео кодек: XviD
Аудио кодек: AC3
Видео: 720x304 (2.37:1), 24.000 fps, XviD build 73 ~1523 kbps avg, 0.29 bit/pixel
Аудио: 48 kHz, AC3 Dolby Digital, 3/2 (L,C,R,l,r) + LFE ch, ~448 kbps

Доп.инфо

за видеоряд спасибо Last Boy Scout
за Живова большое спасибо пользователям форумов: HDTracker - timur, v111o, Role
и Е180 - xerman13, foxlight, luka69, fryak, chontvari, Skoped, Kastro, denis_mgn_1987

MediaInfo

Полное имя : Печальная баллада для трубы.avi
Формат : AVI
Формат/Информация : Audio Video Interleave
Размер файла : 1,46 Гбайт
Продолжительность : 1 ч. 45 м.
Общий поток : 1981 Кбит/сек
Программа кодирования : VirtualDubMod 1.5.10.2 (build 2540/release)
Видео
Идентификатор : 0
Формат : MPEG-4 Visual
Профиль формата : Advanced Simple@L5
Параметр BVOP формата : 1
Параметр QPel формата : Нет
Параметр GMC формата : Без точки перехода
Параметр матрицы формата : Выборочная
Идентификатор кодека : XVID
Идентификатор кодека/Подсказка : XviD
Продолжительность : 1 ч. 45 м.
Битрейт : 1523 Кбит/сек
Ширина : 720 пикселей
Высота : 304 пикселя
Соотношение сторон : 2,35:1
Частота кадров : 24,000 кадра/сек
Цветовое пространство : YUV
Субдискретизация насыщенности : 4:2:0
Битовая глубина : 8 бит
Тип развёртки : Прогрессивная
Метод сжатия : С потерями
Бит/(Пиксели*Кадры) : 0.290
Размер потока : 1,12 Гбайт (77%)
Библиотека кодирования : XviD 73
Аудио
Идентификатор : 1
Формат : AC-3
Формат/Информация : Audio Coding 3
Расширение режима : CM (complete main)
Параметр Endianness формата : Big
Идентификатор кодека : 2000
Продолжительность : 1 ч. 45 м.
Вид битрейта : Постоянный
Битрейт : 448 Кбит/сек
Каналы : 6 каналов
Расположение каналов : Front: L C R, Side: L R, LFE
Частота : 48,0 КГц
Битовая глубина : 16 бит
Метод сжатия : С потерями
Размер потока : 337 Мбайт (23%)
Выравнивание : Разделение по промежуткам
Продолжительность промежутка : 42 мс. (1,00 видеокадр)
Время предзагрузки промежутка : 500 мс.

Скриншоты

[Профиль] [ЛС]

Создавать темы 06-Авг-2015 22:35 (спустя 3 месяца 12 дней)

Топик был перенесен из форума Фильмы до 2014 года в форум Фильмы до 2012 года
sergej644
 

Создавать темы 12-Июн-2016 07:54 (спустя 1 год 1 месяц)

Топик был перенесен из форума Фильмы 2011 года в форум Фильмы 2010 года
Russian Mafia
 
Показать сообщения:    

Текущее время: Сегодня 22:23

Часовой пояс: GMT



Вы не можете начинать темы
Вы не можете отвечать на сообщения
Вы не можете редактировать свои сообщения
Вы не можете удалять свои сообщения
Вы не можете голосовать в опросах
Вы не можете прикреплять файлы к сообщениям
Вы не можете скачивать файлы