Петух и краски (Борис Степанцев) [1964 г., мультфильм, сказка, экранизация, SATRip]

 
Автор Сообщение

TorrentFilm ®

Пол:

Стаж: 2 года

Сообщений: 7741



Награды: Нет

Торрент-статистика

Создавать темы 01-Янв-2016 00:19

[Цитировать]

Петух и краскиСтрана: СССР
Жанр: мультфильм, сказка, экранизация
Продолжительность: ~ 00:15:10
Год выпуска: 1964
Выпущено: «Союзмультфильм»
Режиссёр: Борис Степанцев
Русские субтитры: нетОписание:Для детей. Мультфильм по одноимённой сказке Владимира Сутеева.
На белом экране появляется Карандаш и рисует петуха, который так торопится увидеть свет, что уходит нераскрашенным. Но на скотном дворе все начинают насмехаться над ненастоящим петушком, дразнить его. На помощь ему приходит пёс Бобик, который советует отправиться к Краскам...

Режиссёр и команда

Режиссёр Борис Степанцев
сценарист: Владимир Сутеев
художники-постановщики: Анатолий Савченко, Пётр Репкин
художник: О. Геммерлинг
аниматоры: Валентин Караваев, Лидия Резцова, Рената Миренкова, Антонина Коровина, Константин Чикин, Виолетта Колесникова, Елизавета Комова, Юрий Бутырин, О. Столбова, С. Жутовская, Владимир Арбеков, Владимир Крумин
композитор: Игорь Якушенко
оператор: Михаил Друян
звукооператор: Борис Фильчиков
Роли озвучивали: Клара Румянова (Цыплёнок, Лисёнок), Юлия Юльская, Рина Зелёная (Краски), Георгий Вицин (Петух), Лев Миров
Качество: SATRip
Формат: AVI
Видео: 720x544 (1.32:1), 25 fps, XviD build 64 ~2393 kbps avg, 0.24 bit/pixel
Аудио: 48 kHz, AC3 Dolby Digital, 2/0 (L,R) ch, ~192 kbps
Субтитры: отсутствуют

Подробные технические данные

ОбщееПолное имя : D:\Мульты\Petuh i kraski (SATRip).aviФормат : AVIФормат/Информация : Audio Video InterleaveРазмер файла : 282 МбайтПродолжительность : 15 м.Общий поток : 2595 Кбит/секПрограмма кодирования : VirtualDubMod 1.5.10.2 (build 2540/release)Библиотека кодирования : VirtualDubMod build 2540/release
ВидеоИдентификатор : 0Формат : MPEG-4 VisualПрофиль формата : Advanced Simple@L5Параметр BVOP формата : 2Параметр QPel формата : НетПараметр GMC формата : Без точки переходаПараметр матрицы формата : ВыборочнаяИдентификатор кодека : XVIDИдентификатор кодека/Подсказка : XviDПродолжительность : 15 м.Битрейт : 2394 Кбит/секШирина : 720 пикселейВысота : 544 пикселяСоотношение сторон : 4:3Частота кадров : 25,000 кадров/секЦветовое пространство : YUVСубдискретизация насыщенности : 4:2:0Битовая глубина : 8 битТип развёртки : ПрогрессивнаяМетод сжатия : С потерямиБит/(Пиксели*Кадры) : 0.244Размер потока : 260 Мбайт (92%)Библиотека кодирования : XviD 64
АудиоИдентификатор : 1Формат : AC-3Формат/Информация : Audio Coding 3Расширение режима : CM (complete main)Идентификатор кодека : 2000Продолжительность : 15 м.Вид битрейта : ПостоянныйБитрейт : 192 Кбит/секКаналы : 2 каналаРасположение каналов : Front: L RЧастота : 48,0 КГцБитовая глубина : 16 битМетод сжатия : С потерямиРазмер потока : 20,8 Мбайт (7%)Выравнивание : Разделение по промежуткамПродолжительность промежутка : 40 мс. (1,00 видеокадр)Время предзагрузки промежутка : 500 мс.
Subtitles: Not Present

Скриншоты

-Сравнение с другими раздачами:
1. "Петух и краски" (Катюня, 640x480, ~1099 kbps; mp3 96 kbps, mono) http://screenshotcomparison.com/comparison/46378
2. "Петух и краски" (IlyaSin, MKV, 704x576, 1200 kbps) http://screenshotcomparison.com/comparison/46373
3. "Петух и краски" (xfiles, в сборнике, 688x528, 2394 kbps) http://screenshotcomparison.com/comparison/46375
-
За источник благодарности получает SLuMeP - Все раздачи
[Профиль] [ЛС]
Показать сообщения:    

Текущее время: Сегодня 14:37

Часовой пояс: GMT



Вы не можете начинать темы
Вы не можете отвечать на сообщения
Вы не можете редактировать свои сообщения
Вы не можете удалять свои сообщения
Вы не можете голосовать в опросах
Вы не можете прикреплять файлы к сообщениям
Вы не можете скачивать файлы