Петуния / Petunia (Эш Кристиан / Ash Christian) [2012, США, драма, комедия, HDTVRip 1080p] MVO

 
Автор Сообщение

reversefile ®

Пол:

Стаж: 4 года 5 месяцев

Сообщений: 842

Откуда: ReverseFile.org



Награды: Нет

Торрент-статистика

Создавать темы 11-Авг-2014 10:40

[Цитировать]

Петуния / Petunia Страна: США
Жанр: драма, комедия
Год выпуска: 2012
Продолжительность: 01:47:15
Перевод: Профессиональный (многоголосый закадровый)
Cубтитры: нет
Режиссер: Эш Кристиан / Ash Christian
В ролях: Тобиаш Сигал, Тора Бёрч, Кристин Лати, Бриттани Сноу, Майкл Юри, Дэвид Раш, Эдди Кэй Томас, Джимми Хек, Мередит Холцман, Косондра Сьорстром
Описание: Когда жена одного из братьев беременеет, то жизнь всей семьи меняется навсегда.
Доп. информация:
Запись со спутника телеканал Кинопоказ HD-2 (Триколор ТВ, оцифровка через HDMI выход).
Рип в AVi от edich2
Сэмпл: http://sendfile.su/1007834
Тип релиза: HDTVRip 1080p
Контейнер: TS
Видео: AVC/H.264, PAL, 1920x1080 (16:9), 8059 Кбит/сек, 25.000 fps
Аудио: русский, MP-2, 48000 Hz, 192 Кбит/сек, 2 ch

MediaInfo

Видео
Идентификатор : 224 (0xE0)
Идентификатор меню : 1 (0x1)
Формат : AVC
Формат/Информация : Advanced Video Codec
Профиль формата : High@L4.1
Параметр CABAC формата : Да
Параметр ReFrames формата : 3 кадра
Идентификатор кодека : 27
Продолжительность : 1 ч. 47 м.
Вид битрейта : Постоянный
Битрейт : 8059 Кбит/сек
Ширина : 1920 пикселей
Высота : 1080 пикселей
Соотношение сторон : 16:9
Частота кадров : 25,000 кадров/сек
Стандарт вещания : PAL
Цветовое пространство : YUV
Субдискретизация насыщенности : 4:2:0
Битовая глубина : 8 бит
Тип развёртки : Прогрессивная
Бит/(Пиксели*Кадры) : 0.155
Размер потока : 5,94 Гбайт (93%)
Основные цвета : BT.709
Характеристики трансфера : BT.709
Коэффициенты матрицы : BT.709
Аудио
Идентификатор : 192 (0xC0)
Идентификатор меню : 1 (0x1)
Формат : MPEG Audio
Версия формата : Version 1
Профиль формата : Layer 2
Идентификатор кодека : 3
Продолжительность : 1 ч. 47 м.
Вид битрейта : Постоянный
Битрейт : 192 Кбит/сек
Каналы : 2 канала
Частота : 48,0 КГц
Метод сжатия : С потерями
Задержка видео : 24 мс.
Размер потока : 147 Мбайт (2%)
Язык : Russian

Скриншот c названием фильма

Скриншоты

[Профиль] [ЛС]
Кто просматривает тему:

Показать сообщения:    

Текущее время: Сегодня 14:53

Часовой пояс: GMT



Вы не можете начинать темы
Вы не можете отвечать на сообщения
Вы не можете редактировать свои сообщения
Вы не можете удалять свои сообщения
Вы не можете голосовать в опросах
Вы не можете прикреплять файлы к сообщениям
Вы не можете скачивать файлы