Петергоф - жемчужина России 01 - 08 серии (Юлия Герра) [2009, Документальный, HDTVRip 720p]

 
Автор Сообщение

TorrentFilm ®

Пол:

Стаж: 2 года

Сообщений: 7741



Награды: Нет

Торрент-статистика

Создавать темы 29-Апр-2015 00:03

[Цитировать]

Петергоф - жемчужина России 01 - 08 серии
Дата/Год выпуска: 2009
Жанр: Документальный
Продолжительность: 8 х 00:26:00
Перевод: Не требуется
Режиссер: Юлия Герра
Телеканал: HD Life
Описание: Петергоф как бы родился из пены морской,
как бы вызван к жизни велением могучего царя.
Александр Бенуа Этот человек сочетал в себе таланты архитектора и повара-кулинара.
Прославившись своим искусством на родине и в некоторых странах Европы, он прибыл в Россию. То небольшое время, которое прожил у нас он буквально влюбился в Петербург, его архитектурный строй, поражала и русская кухня, до него нигде не описанная ...
Петергоф - жемчужина России, 1 эп. Великое творение Бенуа
Петергоф - жемчужина России, 2 эп. Мари-Антуан Карем. Король кухни
Петергоф - жемчужина России, 3 эп. Варфоломеевский Петергоф
Петергоф - жемчужина России, 4 эп. Белая Роза Петергофа
Петергоф - жемчужина России, 5 эп. Монплезир двора Петрова
Петергоф - жемчужина России, 6 эп. Ферма-дворец
Петергоф - жемчужина России, 7 эп. Померанцевое дерево. От Александра до Петра
Петергоф - жемчужина России, 8 эп. Померанцевое дерево. От Екатерины до Елены
качество: HDTVRip 720p
формат: MKV
Видео: MPEG-4 AVC , 1280x720 (16:9), 25.000 fps, 7 000 Kbps
Аудио: AC3, 2 ch, 48 kHz, 192 kbps

MediaInfo

GeneralUnique ID : 223113017027511046936086876509437234974 (0xA7DA0109433AAE82AFD2FFCCB9B50F1E)Complete name : Q:\_RAR_2\Петергоф - жемчужина России_720p_[RUTRACKER.ORG]_by kuzmichm2196\Петергоф - жемчужина России, 1 эп. Великое творение Бенуа.mkvFormat : MatroskaFormat version : Version 2File size : 1.31 GiBDuration : 26mn 7sOverall bit rate : 7 193 KbpsEncoded date : UTC 2015-03-05 12:19:53Writing application : mkvmerge v5.5.0 ('Healer') built on Apr 24 2012 23:47:03Writing library : libebml v1.2.3 + libmatroska v1.3.0
VideoID : 1Format : AVCFormat/Info : Advanced Video CodecFormat profile : High@L4.1Format settings, CABAC : YesFormat settings, ReFrames : 8 framesCodec ID : V_MPEG4/ISO/AVCDuration : 26mn 7sBit rate : 7 000 KbpsWidth : 1 280 pixelsHeight : 720 pixelsDisplay aspect ratio : 16:9Frame rate mode : ConstantFrame rate : 25.000 fpsColor space : YUVChroma subsampling : 4:2:0Bit depth : 8 bitsScan type : ProgressiveBits/(Pixel*Frame) : 0.304Stream size : 1.25 GiB (95%)Writing library : x264 core 124 r2197 69a0443Encoding settings : cabac=1 / ref=8 / deblock=1:-1:-1 / analyse=0x3:0x133 / me=umh / subme=7 / psy=1 / psy_rd=1.00:0.10 / mixed_ref=1 / me_range=16 / chroma_me=1 / trellis=2 / 8x8dct=1 / cqm=0 / deadzone=21,11 / fast_pskip=0 / chroma_qp_offset=-3 / threads=6 / sliced_threads=0 / nr=0 / decimate=1 / interlaced=0 / bluray_compat=0 / constrained_intra=0 / bframes=3 / b_pyramid=2 / b_adapt=2 / b_bias=0 / direct=3 / weightb=1 / open_gop=0 / weightp=2 / keyint=250 / keyint_min=25 / scenecut=40 / intra_refresh=0 / rc_lookahead=50 / rc=2pass / mbtree=1 / bitrate=7000 / ratetol=1.0 / qcomp=0.60 / qpmin=0 / qpmax=69 / qpstep=4 / cplxblur=20.0 / qblur=0.5 / ip_ratio=1.40 / aq=1:1.00Default : YesForced : No
AudioID : 2Format : AC-3Format/Info : Audio Coding 3Mode extension : CM (complete main)Format settings, Endianness : BigCodec ID : A_AC3Duration : 26mn 7sBit rate mode : ConstantBit rate : 192 KbpsChannel(s) : 2 channelsChannel positions : Front: L RSampling rate : 48.0 KHzBit depth : 16 bitsCompression mode : LossyStream size : 35.9 MiB (3%)Default : YesForced : No

Скриншоты

Релиз группы:
[Профиль] [ЛС]
Кто просматривает тему:

Форум Тема Автор Размер
BBC BBC: Повседневные чудеса / Everyday Miracles [серии 1 из 2] (Петер Леонард / Peter Leonard) [2014 г., Документальный, технологии, инновации, дизайн, путешествия, HDTVRip 720p] skorpionN 1.76 GB
PBS PBS: Тайны Мертвых. Затерянный в Амазонке / Secrets of the Dead. Lost in the Amazon [сезон 11 эпизод 1 ] (Петер Вон Путткамер / Peter Von Puttkamer) [2011 г., Документальный, познавательный, история,... skorpionN 1.47 GB
Документальные HD «Путешествие из Петербурга в Москву: особый путь». автор Андрей Лошак 4 из 6 (Андрей Лошак) [2014, Документальный, HDTVRip 720p] TorrentFilm 3.1 GB
Фильмы 2009 года Альтиплано / Altiplano (Петер Бросенс / Peter Brosens, Джессика Хоуп Вудворт / Jessica Woodworth) [2009, Бельгия, Германия, Нидерланды, драма, DVDRip] Sub Rus TorrentFilm 1.37 GB
Фильмы 2006-2008 года Арн: Объединенное королевство / Arn: The Kingdom at Road\'s End (Петер Флинт / Peter Flinth) [2008, Германия, Дания, Швеция, Финляндия, Великобритания, Норвегия, боевик, драма, военный, история,... TorrentFilm 1.46 GB
Отечественные cериалы Бандитский Петербург / сезоны 1-10 из 10 / серии 1-90 из 90 / (Владимир Бортко ,Андрей Бенкендорф, Влад Фурман, Виктор Сергеев,Валерий Мюльгаут) [2000-2007 г., Криминальная драма, DVDRip] Russian Mafia 43 GB
Отечественные cериалы Бандитский Петербург [S01-10] (2000-2007) DVDRip достали все 48.36 GB
Документальные HD Гонки на Петербургском автодроме (RTGHD) [2013, Документальный, HDTV 1080i] TorrentFilm 823 MB
Показать сообщения:    

Текущее время: Сегодня 03:06

Часовой пояс: GMT



Вы не можете начинать темы
Вы не можете отвечать на сообщения
Вы не можете редактировать свои сообщения
Вы не можете удалять свои сообщения
Вы не можете голосовать в опросах
Вы не можете прикреплять файлы к сообщениям
Вы не можете скачивать файлы