Пес Снуф и Летающий Фолкерт / Snuf de hond en de jacht op vliegende Volckert (Стивен де Йонг / Steven de Jong) [2008, Нидерланды, семейный, приключения, экранизация, DVDRip] VO (viktor 2838)+ Original (Dutch) + Sub Rus (adamovna)

 
Автор Сообщение

TorrentFilm ®

Пол:

Стаж: 2 года

Сообщений: 7741



Награды: Нет

Торрент-статистика

Создавать темы 22-Дек-2014 02:00

[Цитировать]

~ Пес Снуф и Летающий Фолкерт / Snuf de hond en de jacht op vliegende Volckert ~- Страна: Нидерланды
Жанр: семейный, приключения, экранизация
Год выпуска: 2008
Продолжительность: 01:33:23-Перевод: Одноголосый закадровый viktor_2838
Cубтитры: русские (adamovna), английские, нидерландские
Оригинальная аудиодорожка: нидерландский-Режиссер: Стивен де Йонг / Steven de Jong
В ролях: Том ван Калмтут / Tom van Kalmthout, Вивиан ван Хёйден / Vivian van Huiden, Стивен де Йонг / Steven de Jong, Ренсе Вестра / Rense Westra, Томас Монфор / Tomas Montfort, Саннеке Бос / Sanneke Bos, Bas Muijs и др.
Описание:
Продолжение приключений Тома и Мириам из фильма "Пес Снуф в военное время". Дед Бауке рассказывает им историю о жестоком грабителе - Летающем Фолкерте, прозванном так потому, что он мог скользить по поверхности болота в самых непроходимых его местах, грабителе, наводящем ужас на местных жителей в прошлом и исчезнувшем во время облавы на него. На болоте подростки находят знакомого егеря, попавшего в медвежий капкан, он клянется , что в его беде виноват Летающий Фолкерт, который вернулся, чтобы отомстить всем жителям городка. Когда пугающие необъяснимые вещи начинают происходить еще с несколькими местными старожилами, наши юные герои и их верный пес Снуф решают взять дело в свои руки и расследовать таинственную историю, произошедшую много лет назад.
Доп. информация
Второй фильм, основанный на книгах серии (из 9-ти книг) "Пес Снуф" ("Snuf de hond") нидерландского писателя Пита Йонгелинга (Piet Jongeling), псевдоним - Пит Принс (Piet Prins)-Фильм 1-й: :
Пес Снуф в военное время / Snuf de hond in oorlogstijd (2008) DVDRip VO - 1,5 Gb - AVI
Пес Снуф в военное время / Snuf de hond in oorlogstijd (2008) DVDRip VO - 744 Mb - AVI
Фильм 2-й: альтернативные раздачи: :
Пес Снуф и Летающий Фолкерт / Snuf de hond en de jacht op vliegende Volckert (2008) DVDRip VO - 744 Mb - AVI-Релиз для
IMDb: 6,0 (22)
СЭМПЛ http://multi-up.com/1018449--Качество видео: DVDRip
Формат видео: AVI
Видео: XviD, 16:9, 720 х 400, 25.000 fps, 1 770 Kbps
Аудио1: AC3, 48.0 KHz, 192 Kbps, 2 channels, VO (viktor 2838)
Аудио2: AC3, 48.0 KHz, 192 Kbps, 2 channels, original (Dutch)

MediaInfo

General
Complete name : Snuf de Hond - En de Jacht op Vliegende Volckert (2008).avi
Format : AVI
Format/Info : Audio Video Interleave
File size : 1.41 GiB
Duration : 1h 33mn
Overall bit rate : 2 168 Kbps
Writing application : VirtualDubMod 1.5.10.2 (build 2542/release)
Writing library : VirtualDubMod build 2542/release
Video #0
ID : 0
Format : MPEG-4 Visual
Format profile : Advanced Simple@L5
Format settings, BVOP : 2
Format settings, QPel : No
Format settings, GMC : No warppoints
Format settings, Matrix : Custom
Codec ID : XVID
Codec ID/Hint : XviD
Duration : 1h 33mn
Bit rate : 1 770 Kbps
Width : 720 pixels
Height : 400 pixels
Display aspect ratio : 16:9
Frame rate : 25.000 fps
Color space : YUV
Chroma subsampling : 4:2:0
Bit depth : 8 bits
Scan type : Progressive
Compression mode : Lossy
Bits/(Pixel*Frame) : 0.246
Stream size : 1.15 GiB (82%)
Writing library : XviD 64
Audio #1
ID : 1
Format : AC-3
Format/Info : Audio Coding 3
Mode extension : CM (complete main)
Codec ID : 2000
Duration : 1h 33mn
Bit rate mode : Constant
Bit rate : 192 Kbps
Channel(s) : 2 channels
Channel positions : Front: L R
Sampling rate : 48.0 KHz
Bit depth : 16 bits
Compression mode : Lossy
Stream size : 128 MiB (9%)
Alignment : Split accross interleaves
Interleave, duration : 40 ms (1.00 video frame)
Interleave, preload duration : 500 ms
Audio #2
ID : 2
Format : AC-3
Format/Info : Audio Coding 3
Mode extension : CM (complete main)
Codec ID : 2000
Duration : 1h 33mn
Bit rate mode : Constant
Bit rate : 192 Kbps
Channel(s) : 2 channels
Channel positions : Front: L R
Sampling rate : 48.0 KHz
Bit depth : 16 bits
Compression mode : Lossy
Stream size : 128 MiB (9%)
Alignment : Split accross interleaves
Interleave, duration : 40 ms (1.00 video frame)
Interleave, preload duration : 500 mss

скриншоты


cover


фрагмент субтитров

133
00:14:02,167 --> 00:14:05,762
- Готово. Ты едешь?
- Йелти бы этого не хотелось.
134
00:14:05,887 --> 00:14:09,482
- Я просто хочу проверить хижину.
- Ты всегда так говоришь.
135
00:14:09,607 --> 00:14:12,485
Но кто будет снова выручать
тебя из неприятностей?
136
00:14:12,607 --> 00:14:15,485
- Ты опасаешься.
- Йелти опасается, а я уважаю ее чувства.
137
00:14:15,607 --> 00:14:18,280
Ты боишься, признайся.
138
00:14:18,407 --> 00:14:20,363
Думай, что хочешь.
139
00:14:24,487 --> 00:14:26,159
Ты на самом деле не едешь?
140
00:14:27,447 --> 00:14:31,201
А если бы я сказал, что ты очень смелая?
141
00:14:31,327 --> 00:14:34,558
Что, что? Простите, я не расслышала.
142
00:14:34,687 --> 00:14:40,284
Мириам Вайсман -
самая храбрая девушка в мире!
143
00:14:42,167 --> 00:14:44,886
Ну, ты подойдешь взять меня, или что?
144
00:14:46,367 --> 00:14:48,676
Вы тоже слышали, да?
145
00:14:48,807 --> 00:14:52,436
Это - работа Летающего Фолкерта.
- Вы верите в призраков?
146
00:14:52,567 --> 00:14:56,765
- Вы видели то, что видел я?
- Нет, к счастью, нет.
147
00:14:57,847 --> 00:15:00,919
- Он вернулся. Он вернулся...
- Да, да.
148
00:15:10,607 --> 00:15:12,165
Что там такое, мальчик?
149
00:15:13,887 --> 00:15:16,606
Что-то там есть, иначе бы он не лаял.
150
00:15:17,847 --> 00:15:20,441
Что там, мальчик? Что случилось?
151
00:15:20,567 --> 00:15:22,205
Что ты видишь?
152
00:15:22,327 --> 00:15:23,840
Эй, что это?
153
00:16:13,247 --> 00:16:15,158
Том?
[Профиль] [ЛС]

Создавать темы 06-Авг-2015 22:53 (спустя 7 месяцев 15 дней)

Топик был перенесен из форума Фильмы до 2014 года в форум Фильмы до 2012 года
sergej644
 

Создавать темы 12-Июн-2016 08:51 (спустя 1 год 5 месяцев)

Топик был перенесен из форума Фильмы 2011 года в форум Фильмы 2006-2008 года
Russian Mafia
 
Кто просматривает тему:

Показать сообщения:    

Текущее время: Сегодня 02:08

Часовой пояс: GMT



Вы не можете начинать темы
Вы не можете отвечать на сообщения
Вы не можете редактировать свои сообщения
Вы не можете удалять свои сообщения
Вы не можете голосовать в опросах
Вы не можете прикреплять файлы к сообщениям
Вы не можете скачивать файлы