Пес в сапогах (Ефим Гамбург) [1981 г., Мультфильм, музыкальный, приключения, DVDRip-AVC] КП, реставрация

 
Автор Сообщение

TorrentFilm ®

Пол:

Стаж: 2 года

Сообщений: 7741



Награды: Нет

Торрент-статистика

Создавать темы 01-Янв-2016 00:22

[Цитировать]

Пес в сапогах
Страна: СССР
Жанр: Мультфильм, музыкальный, приключения
Продолжительность: 00:19:48
Год выпуска: 1981
Русские субтитры: нет
Режиссёр: Ефим Гамбург
Роли озвучивали: Николай Караченцов, Ирина Муравьёва, Валентин Гафт, Юрий Волынцев, Александр Ширвиндт, Евгений Весник, Лев Дуров, Василий Ливанов, Всеволод Ларионов, Григорий Шпигель
Описание: Пёс-гасконец влюбляется в болонку самой королевы и отправляется за ней ко двору. Та даёт ему задание спасти хозяйку, которая подарила свои алмазные подвески возлюбленному-герцогу, но должна появиться в них на балу. Верный гасконец со своими друзьями Толстяком, Красавчиком и Благородным отправляется в Англию
Релиз:
Качество: DVDRip-AVC
Видео: 714x572 (4:3) @ 762x572, 25.000 fps, AVC, ~2347 Kbps, 0.230 bits/pixel
Аудио: Russian, 48.0 KHz, AC3, 6 ch, 448 Kbps
Субтитры: отсутствуют

Подробные технические данные

GeneralUnique ID : 173134755453051444965599699055120285114 (0x82408A7E9731BE25A27C33857508FDBA)Complete name : D:\Tor_MY\Pes v sapogah.mkvFormat : MatroskaFormat version : Version 4 / Version 2File size : 404 MiBDuration : 19mn 47sOverall bit rate : 2 852 KbpsMovie name : Pes v sapogah.mkv by Nyc-2008Encoded date : UTC 2014-01-30 16:08:07Writing application : mkvmerge v6.7.0 ('Back to the Ground') 32bit built on Jan 8 2014 15:03:17Writing library : libebml v1.3.0 + libmatroska v1.4.1
VideoID : 1Format : AVCFormat/Info : Advanced Video CodecFormat profile : High@L4.0Format settings, CABAC : YesFormat settings, ReFrames : 16 framesCodec ID : V_MPEG4/ISO/AVCDuration : 19mn 47sBit rate : 2 347 KbpsWidth : 714 pixelsHeight : 572 pixelsDisplay aspect ratio : 4:3Original display aspect ratio : 4:3Frame rate mode : ConstantFrame rate : 25.000 fpsColor space : YUVChroma subsampling : 4:2:0Bit depth : 8 bitsScan type : ProgressiveBits/(Pixel*Frame) : 0.230Stream size : 332 MiB (82%)Writing library : x264 core 140 r2377kMod 1ca7bb9Encoding settings : cabac=1 / ref=16 / deblock=1:-1:-1 / analyse=0x3:0x113 / me=umh / subme=10 / psy=1 / fade_compensate=0.00 / psy_rd=1.00:0.00 / mixed_ref=1 / me_range=24 / chroma_me=1 / trellis=2 / 8x8dct=1 / cqm=0 / deadzone=21,11 / fast_pskip=0 / chroma_qp_offset=-2 / threads=6 / lookahead_threads=1 / sliced_threads=0 / nr=0 / decimate=1 / interlaced=0 / bluray_compat=0 / constrained_intra=0 / fgo=0 / bframes=16 / b_pyramid=2 / b_adapt=2 / b_bias=0 / direct=1 / weightb=1 / open_gop=0 / weightp=2 / keyint=250 / keyint_min=25 / scenecut=40 / intra_refresh=0 / rc=crf / mbtree=0 / crf=18.0000 / qcomp=0.60 / qpmin=0 / qpmax=69 / qpstep=4 / ip_ratio=1.40 / pb_ratio=1.30 / aq=1:1.00Default : YesForced : No
AudioID : 2Format : AC-3Format/Info : Audio Coding 3Mode extension : CM (complete main)Format settings, Endianness : BigCodec ID : A_AC3Duration : 19mn 47sBit rate mode : ConstantBit rate : 448 KbpsChannel(s) : 6 channelsChannel positions : Front: L C R, Side: L R, LFESampling rate : 48.0 KHzBit depth : 16 bitsCompression mode : LossyStream size : 63.4 MiB (16%)Language : RussianDefault : YesForced : No

Скриншоты

[Профиль] [ЛС]
Кто просматривает тему:

Показать сообщения:    

Текущее время: Сегодня 13:51

Часовой пояс: GMT



Вы не можете начинать темы
Вы не можете отвечать на сообщения
Вы не можете редактировать свои сообщения
Вы не можете удалять свои сообщения
Вы не можете голосовать в опросах
Вы не можете прикреплять файлы к сообщениям
Вы не можете скачивать файлы