Пес Барбос и необычный кросс, Самогонщики, «Сто грамм» для храбрости (1961-1976) BDRip [1080p]

 
Автор Сообщение

sergej644 ®

Пол:

Стаж: 4 года 11 месяцев

Сообщений: 6040

Откуда: Soviet Union



Награды: Нет

Торрент-статистика

Создавать темы 21-Июл-2014 11:25

[Цитировать]

-Пес Барбос и необычный кросс, Самогонщики, «Сто грамм» для храбрости (1961-1976) BDRip- Год выпуска: 1961-1976
Производство: Мосфильм [СССР]
Жанр: Комедия, короткометражка
Перевод: Не требуется
Язык субтитров: Отсутствует
Режиссер: Леонид Гайдай, Борис Бушмелёв, Анатолий Маркелов
Актеры: Евгений Моргунов, Георгий Вицин, Юрий Никулин, Владимир Пицек, Игорь Ясулович, Юрий Кузьменков, Юрий Белов, Рина Зеленая, Владимир Басов, Михаил Светин, Гоги Кавтарадзе, Валентина Титова, Абессалом Лория, Анастасия Георгиевская, Борислав Брондуков
Описание фильма:
В сборник вошли три новеллы: «Пес Барбос и необычный кросс» - рассказ о наказании постигшем на рыбалке троицу горе-браконьеров...; «Самогонщики» - Трус, Балбес и Бывалый решают поставить на широкую ногу изготовление самогона - и снова фиаско...; «Сто грамм для храбрости» - три сатирические новеллы антиалкогольной тематики...-Пес Барбос и необычный кросс (1961)

Дата мировой премьеры: 18 октября 1961
Возраст 0+ - для любой зрительской аудитории-Самогонщики (1961)

Дата мировой премьеры: 8 января 1962
Дата выхода DVD релиза: 11 января 2011, «Парадиз Медиа»
Возраст 0+ - для любой зрительской аудитории-«Сто грамм» для храбрости (1976)

Дата мировой премьеры: 23 мая 1977
Возраст 12+ - зрителям, достигшим 12 лет-Релиз от:
Продолжительность: 01:44:25 (00:10:28 + 00:18:58 + 01:14:59)
Качество видео: BDRip (batonchik)
Видео:
1,2. MPEG-4 AVC Video 18000 kbps 1480x1080p / 23,976 fps / 16:9 / High Profile 4.1
3. MPEG-4 AVC Video 10000 kbps 1920x816p / 23,976 fps / 16:9 / High Profile 4.1
Аудио:
1. Dolby Digital Audio Russian 448 kbps 5.1 / 48 kHz
2. DTS Audio Russian 1509 kbps 5.1 / 48 kHz / 24-bit

h.264 log:

Пес Барбос и необычный кросс
--[Information] [14.05.2014 13:42:11] Standard error stream
---[Information] [14.05.2014 13:42:12] raw [info]: 1480x1080p 1:1 @ 24000/1001 fps (cfr)
---[Information] [14.05.2014 13:42:12] x264 [info]: using SAR=1/1
---[Information] [14.05.2014 13:42:12] x264 [info]: using cpu capabilities: MMX2 SSE2Fast SSSE3 SSE4.2 AVX
---[Information] [14.05.2014 13:42:12] x264 [info]: profile High, level 4.1
---[Information] [14.05.2014 14:36:03] x264 [info]: frame I:116   Avg QP:17.20  size:313445
---[Information] [14.05.2014 14:36:03] x264 [info]: frame P:3961  Avg QP:20.18  size:171705
---[Information] [14.05.2014 14:36:03] x264 [info]: frame B:10974 Avg QP:22.67  size: 63446
===================================================================================
Самогонщики
--[Information] [14.05.2014 17:20:25] Standard error stream
---[Information] [14.05.2014 17:20:27] raw [info]: 1480x1080p 1:1 @ 24000/1001 fps (cfr)
---[Information] [14.05.2014 17:20:27] x264 [info]: using SAR=1/1
---[Information] [14.05.2014 17:20:27] x264 [info]: using cpu capabilities: MMX2 SSE2Fast SSSE3 SSE4.2 AVX
---[Information] [14.05.2014 17:20:27] x264 [info]: profile High, level 4.1
---[Information] [14.05.2014 18:55:35] x264 [info]: frame I:243   Avg QP:16.06  size:301359
---[Information] [14.05.2014 18:55:35] x264 [info]: frame P:6550  Avg QP:18.92  size:179152
---[Information] [14.05.2014 18:55:35] x264 [info]: frame B:20507 Avg QP:21.38  size: 64159
===================================================================================
«Сто грамм» для храбрости
--[Information] [14.05.2014 21:13:06] Standard error stream
---[Information] [14.05.2014 21:13:11] raw [info]: 1920x816p 1:1 @ 24000/1001 fps (cfr)
---[Information] [14.05.2014 21:13:11] x264 [info]: using SAR=1/1
---[Information] [14.05.2014 21:13:11] x264 [info]: using cpu capabilities: MMX2 SSE2Fast SSSE3 SSE4.2 AVX
---[Information] [14.05.2014 21:13:11] x264 [info]: profile High, level 4.1
---[Information] [15.05.2014 2:09:21] x264 [info]: frame I:614   Avg QP:16.70  size:217344
---[Information] [15.05.2014 2:09:21] x264 [info]: frame P:22631 Avg QP:19.29  size:109147
---[Information] [15.05.2014 2:09:21] x264 [info]: frame B:84624 Avg QP:20.98  size: 35695

MediaInfo:

Общее
Уникальный идентификатор                 : 231921266861576773072622305079115532112 (0xAE7A6948434945FD99B89F7F73DA4750)
Полное имя                               :\Самогонщики.BDrip.1080p\PesBarbos.1961.BDRip.1080p.mkv
Формат                                   : Matroska
Версия формата                           : Version 2
Размер файла                             : 1,46 Гбайт
Продолжительность                        : 10 м.
Общий поток                              : 20,0 Мбит/сек
Название фильма                          : PesBarbos.1961.BDRip.1080p
Дата кодирования                         : UTC 2014-05-16 08:43:49
Программа кодирования                    : mkvmerge v5.8.0 ('No Sleep / Pillow') built on Sep  2 2012 15:37:04
Библиотека кодирования                   : libebml v1.2.3 + libmatroska v1.3.0
Видео
Идентификатор                            : 1
Формат                                   : AVC
Формат/Информация                        : Advanced Video Codec
Профиль формата                          : [url=mailto:High@L4.1]High@L4.1[/url]
Параметр CABAC формата                   : Да
Параметр ReFrames формата                : 4 кадра
Идентификатор кодека                     : V_MPEG4/ISO/AVC
Продолжительность                        : 10 м.
Битрейт                                  : 18,0 Мбит/сек
Ширина                                   : 1480 пикселей
Высота                                   : 1080 пикселей
Соотношение сторон                       : 1,370
Режим частоты кадров                     : Постоянный
Частота кадров                           : 23,976 кадра/сек
Цветовое пространство                    : YUV
Субдискретизация насыщенности            : 4:2:0
Битовая глубина                          : 8 бит
Тип развёртки                            : Прогрессивная
Бит/(Пиксели*Кадры)                      : 0.470
Размер потока                            : 1,29 Гбайт (88%)
Заголовок                                : PesBarbos.1961.BDRip.1080p
Библиотека кодирования                   : x264 core 138 r2358 9e941d1
Настройки программы                      : cabac=1 / ref=4 / deblock=1:-2:-2 / analyse=0x3:0x133 / me=umh / subme=10 / psy=1 / psy_rd=1.00:0.15 / mixed_ref=1 / me_range=32 / chroma_me=1 / trellis=2 / 8x8dct=1 / cqm=0 / deadzone=21,11 / fast_pskip=0 / chroma_qp_offset=-3 / threads=12 / lookahead_threads=1 / sliced_threads=0 / nr=0 / decimate=1 / interlaced=0 / bluray_compat=0 / constrained_intra=0 / bframes=6 / b_pyramid=2 / b_adapt=2 / b_bias=0 / direct=3 / weightb=1 / open_gop=0 / weightp=2 / keyint=250 / keyint_min=23 / scenecut=40 / intra_refresh=0 / rc_lookahead=40 / rc=2pass / mbtree=1 / bitrate=18000 / ratetol=1.0 / qcomp=0.60 / qpmin=0 / qpmax=69 / qpstep=4 / cplxblur=20.0 / qblur=0.5 / vbv_maxrate=50000 / vbv_bufsize=62500 / nal_hrd=none / ip_ratio=1.40 / aq=1:0.90
Язык                                     : Russian
Default                                  : Да
Forced                                   : Нет
Аудио #1
Идентификатор                            : 2
Формат                                   : AC-3
Формат/Информация                        : Audio Coding 3
Расширение режима                        : CM (complete main)
Параметр Endianness формата              : Big
Идентификатор кодека                     : A_AC3
Продолжительность                        : 10 м.
Вид битрейта                             : Постоянный
Битрейт                                  : 448 Кбит/сек
Каналы                                   : 6 каналов
Расположение каналов                     : Front: L C R, Side: L R, LFE
Частота                                  : 48,0 КГц
Битовая глубина                          : 16 бит
Метод сжатия                             : С потерями
Размер потока                            : 33,5 Мбайт (2%)
Заголовок                                : AC3
Язык                                     : Russian
Default                                  : Да
Forced                                   : Нет
Аудио #2
Идентификатор                            : 3
Формат                                   : DTS
Формат/Информация                        : Digital Theater Systems
Режим                                    : 16
Параметр Endianness формата              : Big
Идентификатор кодека                     : A_DTS
Продолжительность                        : 10 м.
Вид битрейта                             : Постоянный
Битрейт                                  : 1509 Кбит/сек
Каналы                                   : 6 каналов
Расположение каналов                     : Front: L C R, Side: L R, LFE
Частота                                  : 48,0 КГц
Битовая глубина                          : 24 бит
Метод сжатия                             : С потерями
Размер потока                            : 113 Мбайт (8%)
Заголовок                                : DTS
Язык                                     : Russian
Default                                  : Нет
Forced                                   : Нет
=================================================================
Общее
Уникальный идентификатор                 : 202454136325227205024968109531332841347 (0x984F3F93F4C39C5B87C4919E91438F83)
Полное имя                               : \Самогонщики.BDrip.1080p\Samogonchiki.1961.BDRip.1080p.mkv
Формат                                   : Matroska
Версия формата                           : Version 2
Размер файла                             : 2,65 Гбайт
Продолжительность                        : 18 м.
Общий поток                              : 20,0 Мбит/сек
Название фильма                          : Samogonchiki.1961.BDRip.1080p
Дата кодирования                         : UTC 2014-05-16 08:49:35
Программа кодирования                    : mkvmerge v5.8.0 ('No Sleep / Pillow') built on Sep  2 2012 15:37:04
Библиотека кодирования                   : libebml v1.2.3 + libmatroska v1.3.0
Видео
Идентификатор                            : 1
Формат                                   : AVC
Формат/Информация                        : Advanced Video Codec
Профиль формата                          : [url=mailto:High@L4.1]High@L4.1[/url]
Параметр CABAC формата                   : Да
Параметр ReFrames формата                : 4 кадра
Идентификатор кодека                     : V_MPEG4/ISO/AVC
Продолжительность                        : 18 м.
Битрейт                                  : 18,0 Мбит/сек
Ширина                                   : 1480 пикселей
Высота                                   : 1080 пикселей
Соотношение сторон                       : 1,370
Режим частоты кадров                     : Постоянный
Частота кадров                           : 23,976 кадра/сек
Цветовое пространство                    : YUV
Субдискретизация насыщенности            : 4:2:0
Битовая глубина                          : 8 бит
Тип развёртки                            : Прогрессивная
Бит/(Пиксели*Кадры)                      : 0.470
Размер потока                            : 2,33 Гбайт (88%)
Заголовок                                : Samogonchiki.1961.BDRip.1080p
Библиотека кодирования                   : x264 core 138 r2358 9e941d1
Настройки программы                      : cabac=1 / ref=4 / deblock=1:-2:-2 / analyse=0x3:0x133 / me=umh / subme=10 / psy=1 / psy_rd=1.00:0.15 / mixed_ref=1 / me_range=32 / chroma_me=1 / trellis=2 / 8x8dct=1 / cqm=0 / deadzone=21,11 / fast_pskip=0 / chroma_qp_offset=-3 / threads=12 / lookahead_threads=2 / sliced_threads=0 / nr=0 / decimate=1 / interlaced=0 / bluray_compat=0 / constrained_intra=0 / bframes=7 / b_pyramid=2 / b_adapt=2 / b_bias=0 / direct=3 / weightb=1 / open_gop=0 / weightp=2 / keyint=250 / keyint_min=23 / scenecut=40 / intra_refresh=0 / rc_lookahead=40 / rc=2pass / mbtree=1 / bitrate=18000 / ratetol=1.0 / qcomp=0.60 / qpmin=0 / qpmax=69 / qpstep=4 / cplxblur=20.0 / qblur=0.5 / vbv_maxrate=50000 / vbv_bufsize=62500 / nal_hrd=none / ip_ratio=1.40 / aq=1:0.90
Язык                                     : Russian
Default                                  : Да
Forced                                   : Нет
Аудио #1
Идентификатор                            : 2
Формат                                   : AC-3
Формат/Информация                        : Audio Coding 3
Расширение режима                        : CM (complete main)
Параметр Endianness формата              : Big
Идентификатор кодека                     : A_AC3
Продолжительность                        : 18 м.
Вид битрейта                             : Постоянный
Битрейт                                  : 448 Кбит/сек
Каналы                                   : 6 каналов
Расположение каналов                     : Front: L C R, Side: L R, LFE
Частота                                  : 48,0 КГц
Битовая глубина                          : 16 бит
Метод сжатия                             : С потерями
Размер потока                            : 60,8 Мбайт (2%)
Заголовок                                : AC3
Язык                                     : Russian
Default                                  : Да
Forced                                   : Нет
Аудио #2
Идентификатор                            : 3
Формат                                   : DTS
Формат/Информация                        : Digital Theater Systems
Режим                                    : 16
Параметр Endianness формата              : Big
Идентификатор кодека                     : A_DTS
Продолжительность                        : 18 м.
Вид битрейта                             : Постоянный
Битрейт                                  : 1509 Кбит/сек
Каналы                                   : 6 каналов
Расположение каналов                     : Front: L C R, Side: L R, LFE
Частота                                  : 48,0 КГц
Битовая глубина                          : 24 бит
Метод сжатия                             : С потерями
Размер потока                            : 205 Мбайт (8%)
Заголовок                                : DTS
Язык                                     : Russian
Default                                  : Нет
Forced                                   : Нет
==========================================================
Общее
Уникальный идентификатор                 : 198626970399307937477305314455742641792 (0x956E29BABA63A2BD9A70E62C2748F680)
Полное имя                               : \Самогонщики.BDrip.1080p\Sto.gramm.dlja.hrabrosti.1976.BDRip1080p.mkv
Формат                                   : Matroska
Версия формата                           : Version 2
Размер файла                             : 6,26 Гбайт
Продолжительность                        : 1 ч. 14 м.
Общий поток                              : 12,0 Мбит/сек
Название фильма                          : Sto.gramm.dlja.hrabrosti.1976.BDRip1080p
Дата кодирования                         : UTC 2014-05-16 09:08:27
Программа кодирования                    : mkvmerge v5.8.0 ('No Sleep / Pillow') built on Sep  2 2012 15:37:04
Библиотека кодирования                   : libebml v1.2.3 + libmatroska v1.3.0
Видео
Идентификатор                            : 1
Формат                                   : AVC
Формат/Информация                        : Advanced Video Codec
Профиль формата                          : [url=mailto:High@L4.1]High@L4.1[/url]
Параметр CABAC формата                   : Да
Параметр ReFrames формата                : 4 кадра
Идентификатор кодека                     : V_MPEG4/ISO/AVC
Продолжительность                        : 1 ч. 14 м.
Битрейт                                  : 10000 Кбит/сек
Ширина                                   : 1920 пикселей
Высота                                   : 816 пикселей
Соотношение сторон                       : 2,35:1
Режим частоты кадров                     : Постоянный
Частота кадров                           : 23,976 кадра/сек
Цветовое пространство                    : YUV
Субдискретизация насыщенности            : 4:2:0
Битовая глубина                          : 8 бит
Тип развёртки                            : Прогрессивная
Бит/(Пиксели*Кадры)                      : 0.266
Размер потока                            : 5,11 Гбайт (82%)
Библиотека кодирования                   : x264 core 138 r2358 9e941d1
Настройки программы                      : cabac=1 / ref=4 / deblock=1:-3:-3 / analyse=0x3:0x133 / me=umh / subme=10 / psy=1 / psy_rd=1.00:0.15 / mixed_ref=1 / me_range=32 / chroma_me=1 / trellis=2 / 8x8dct=1 / cqm=0 / deadzone=21,11 / fast_pskip=0 / chroma_qp_offset=-3 / threads=12 / lookahead_threads=2 / sliced_threads=0 / nr=0 / decimate=1 / interlaced=0 / bluray_compat=0 / constrained_intra=0 / bframes=7 / b_pyramid=2 / b_adapt=2 / b_bias=0 / direct=3 / weightb=1 / open_gop=0 / weightp=2 / keyint=250 / keyint_min=23 / scenecut=40 / intra_refresh=0 / rc_lookahead=40 / rc=2pass / mbtree=1 / bitrate=10000 / ratetol=1.0 / qcomp=0.60 / qpmin=0 / qpmax=69 / qpstep=4 / cplxblur=20.0 / qblur=0.5 / vbv_maxrate=50000 / vbv_bufsize=62500 / nal_hrd=none / ip_ratio=1.40 / aq=1:1.00
Язык                                     : Russian
Default                                  : Да
Forced                                   : Нет
Аудио #1
Идентификатор                            : 2
Формат                                   : AC-3
Формат/Информация                        : Audio Coding 3
Расширение режима                        : CM (complete main)
Параметр Endianness формата              : Big
Идентификатор кодека                     : A_AC3
Продолжительность                        : 1 ч. 14 м.
Вид битрейта                             : Постоянный
Битрейт                                  : 448 Кбит/сек
Каналы                                   : 6 каналов
Расположение каналов                     : Front: L C R, Side: L R, LFE
Частота                                  : 48,0 КГц
Битовая глубина                          : 16 бит
Метод сжатия                             : С потерями
Размер потока                            : 240 Мбайт (4%)
Заголовок                                : AC3
Язык                                     : Russian
Default                                  : Да
Forced                                   : Нет
Аудио #2
Идентификатор                            : 3
Формат                                   : DTS
Формат/Информация                        : Digital Theater Systems
Режим                                    : 16
Параметр Endianness формата              : Big
Идентификатор кодека                     : A_DTS
Продолжительность                        : 1 ч. 14 м.
Вид битрейта                             : Постоянный
Битрейт                                  : 1509 Кбит/сек
Каналы                                   : 6 каналов
Расположение каналов                     : Front: L C R, Side: L R, LFE
Частота                                  : 48,0 КГц
Битовая глубина                          : 24 бит
Метод сжатия                             : С потерями
Размер потока                            : 809 Мбайт (13%)
Заголовок                                : DTS
Язык                                     : Russian
Default                                  : Нет
Forced                                   : Нет
Меню
00:00:00.000                             : ru:Chapter 01
00:10:28.085                             : ru:Chapter 02
00:29:26.723                             : ru:Chapter 03
00:47:58.417                             : ru:Chapter 04
01:05:39.143                             : ru:Chapter 05
01:44:24.800                             : ru:Chapter 06

Знаете ли Вы, что...

В сцене, где впервые Бывалый достает динамитовую шашку, у нее нет огнепроводного шнура, хотя в дальнейшем он появляется.
В фильме огнепроводный шнур горит красным пламенем. Но на самом деле должен гореть желтым.
В сцене, где мимо троицы на лодке проплывает рыбнадзор слышен звук низкооборотистого четырехтактного двигателя серии «Л» (действительно широко применявшийся на лодках в те годы), хотя на той лодке стоит подвесной мотор «Москва».
Скриншоты:


[Профиль] [ЛС]
Кто просматривает тему:

Показать сообщения:    

Текущее время: Сегодня 02:35

Часовой пояс: GMT



Вы не можете начинать темы
Вы не можете отвечать на сообщения
Вы не можете редактировать свои сообщения
Вы не можете удалять свои сообщения
Вы не можете голосовать в опросах
Вы не можете прикреплять файлы к сообщениям
Вы не можете скачивать файлы