Песчаные замки / Sandcastles (3 выпуска) (Rob Buckel) [2011, Документальный цикл, архитектура, HDTV 1080i, RU]

 
Автор Сообщение

TorrentFilm ®

Пол:

Стаж: 2 года

Сообщений: 7741



Награды: Нет

Торрент-статистика

Создавать темы 21-Дек-2014 02:15

[Цитировать]

Песчаные замки / Sandcastles
Год выпуска: 2011
Страна: Австралия
Студия: Hark Attack
Жанр: Документальный цикл, архитектура
Продолжительность: 00:21:16
Перевод: Студийный (одноголосый закадровый)
Доп. инфо о переводе: ТПО Red Media
Русские субтитры: нет
Режиссер: Rob Buckel
Описание: Документальный сериал о необыкновенных домах, о смелых инженерных решениях и архитектурных находках!
06.12.2014 _ добавил 2 серии
перезаливаем

Песчаные замки_ Сезон 1_4 серия_Phillip Island_Австралия

Песчаные замки_Сезон 1_5 серия_Opossum Bay, Tasmania_Австралия

Песчаные замки_Сезон 1_6 серия_Hamilton _Австралия

Песчаные замки_Сезон 2_1 серия_Clifton Gardens_Австралия

Песчаные замки_Сезон 2_2 серия_Bronte_Австралия

Сэмпл: http://multi-up.com/1017691
Тип релиза: HDTV 1080i
Контейнер: MKV
Видео: AVC, 1920x1080, (16:9), 25 fps, 10.9 Mbps
Аудио: Русский, MP2, 48 kHz, 2 ch, 192 kbps

MediaInfo

GeneralUnique ID : 260112924129649613187130645778525337713 (0xC3AFED4C9E1AC7AF33A8F4EB20943871)Complete name : C:\Песчаные замки_Sandcastles_HDTV 1080i_RU\Песчаные замки_ Сезон 1_4 серия_Phillip Island_Австралия.mkvFormat : MatroskaFormat version : Version 2File size : 1.68 GiBDuration : 21mn 16sOverall bit rate : 11.3 MbpsWriting application : Lavf54.63.104Writing library : Lavf54.63.104
VideoID : 1Format : AVCFormat/Info : Advanced Video CodecFormat profile : High@L4.0Format settings, CABAC : YesFormat settings, ReFrames : 4 framesCodec ID : V_MPEG4/ISO/AVCDuration : 21mn 16sBit rate : 10.9 MbpsWidth : 1 920 pixelsHeight : 1 080 pixelsDisplay aspect ratio : 16:9Frame rate mode : ConstantFrame rate : 25.000 fpsStandard : ComponentColor space : YUVChroma subsampling : 4:2:0Bit depth : 8 bitsScan type : InterlacedScan order : Top Field FirstBits/(Pixel*Frame) : 0.210Stream size : 1.61 GiB (96%)Default : NoForced : NoColor primaries : BT.709Transfer characteristics : BT.709Matrix coefficients : BT.709Color range : Limited
AudioID : 2Format : MPEG AudioFormat version : Version 1Format profile : Layer 2Codec ID : A_MPEG/L2Codec ID/Hint : MP2Duration : 21mn 16sBit rate mode : ConstantBit rate : 192 KbpsChannel(s) : 2 channelsSampling rate : 48.0 KHzCompression mode : LossyStream size : 29.2 MiB (2%)Language : RussianDefault : YesForced : No

Скриншоты

[Профиль] [ЛС]
Кто просматривает тему:

Показать сообщения:    

Текущее время: Сегодня 18:35

Часовой пояс: GMT



Вы не можете начинать темы
Вы не можете отвечать на сообщения
Вы не можете редактировать свои сообщения
Вы не можете удалять свои сообщения
Вы не можете голосовать в опросах
Вы не можете прикреплять файлы к сообщениям
Вы не можете скачивать файлы