Песня о юном барабанщике (Вячеслав Котеночкин) [1972, драма, TVRip]

 
Автор Сообщение

painkiller ®

Стаж: 2 года 3 месяца

Сообщений: 582



Награды: Нет

Торрент-статистика

Создавать темы 27-Авг-2014 15:29

[Цитировать]

Песня о юном барабанщике
Страна: СССР
Жанр: драма
Продолжительность: 5mn 35s
Год выпуска: 1972
Русские субтитры: нет
Режиссёр: Вячеслав Котеночкин
Роли озвучивали: Большой пионерский хор
Описание: На тему известной революционной песни. О жизни и гибели юного барабанщика.
Семпл: http://narod.ru/disk/65127541001.5b3745619ad41be7c1....yunom.barabansc
Качество: TVRip
Формат: MP4
Видео: MPEG Video 352х240 4:3 29.970 fps 1 112 Kbps
Аудио: MPEG Audio 44.1 KHz 2 channels 224 Kbps
Субтитры: отсутствуют

Подробные технические данные

GeneralComplete name : C:\Users\Саша\Downloads\Видео\pesnya.o.yunom.barabanschike.mpgFormat : MPEG-PSFile size : 55.5 MiBDuration : 5mn 35sOverall bit rate : 1 391 KbpsWriting library : (C) 1997-2000 Womble Multimedia, Inc. / MPEG-VCR OEM (12/2000) / Feb 22 2001
VideoID : 224 (0xE0)Format : MPEG VideoFormat version : Version 1Format settings, BVOP : YesFormat settings, Matrix : DefaultDuration : 5mn 35sBit rate mode : ConstantBit rate : 1 112 KbpsNominal bit rate : 1 150 KbpsWidth : 352 pixelsHeight : 240 pixelsDisplay aspect ratio : 4:3Frame rate : 29.970 fpsResolution : 8 bitsScan type : ProgressiveBits/(Pixel*Frame) : 0.439Stream size : 44.4 MiB (80%)Writing library : (C) 1997-2000 Womble Multimedia, Inc. / MPEG-VCR OEM (12/2000) / Feb 22 2001
AudioID : 192 (0xC0)Format : MPEG AudioFormat version : Version 1Format profile : Layer 2Duration : 5mn 35sBit rate mode : ConstantBit rate : 224 KbpsChannel(s) : 2 channelsSampling rate : 44.1 KHzVideo delay : -67msStream size : 8.95 MiB (16%)

Скриншоты




[Профиль] [ЛС]
Показать сообщения:    

Текущее время: Сегодня 00:50

Часовой пояс: GMT



Вы не можете начинать темы
Вы не можете отвечать на сообщения
Вы не можете редактировать свои сообщения
Вы не можете удалять свои сообщения
Вы не можете голосовать в опросах
Вы не можете прикреплять файлы к сообщениям
Вы не можете скачивать файлы