Песня о Свэй-Лэйк / The Song of Sway Lake (2017) WEBRip | L2

 
Author Message

BOSS ®

Gender:

Longevity: 4 years 10 months

Posts: 14162

Location: ODESSA



: 22 ()

Mega Releaser 3 (1) Top Keeper 2 (1) Top Seeder 5 (1)
Торрент-статистика

Post 02-Feb-2019 18:16

[Quote]

Информация о фильме
Название: Песня о Свэй-Лэйк
Оригинальное название: The Song of Sway Lake
Год выхода: 2017
Жанр: Мюзикл, драма, мелодрама
Режиссер: Ари Голд
В ролях: Рори Калкин, Роберт Шиэн, Изабель МакНалли, Мэри Бет Пейл, Элизабет Пенья, Джек Фалахи, Брайан Деннехи, Анна Шилдс, Гари Арцбергер, Джон В. Бард
О фильме:
Заядлый коллекционер музыки Олли отправляется с русским другом Николаем в своё родовое имение на Свэй-Лейк, принадлежащее бабушке, якобы на отдых. Но настоящая цель парней - украсть уникальную и очень ценную пластинку покойного отца Олли.

Страна: США, Grack Films, Social Construct, Act Zero Films
Продолжительность: 01:34:45
Перевод: Любительский (двухголосый закадровый) | HiWay Grope
Файл
Кодек: XviD
Качество: WEBRip
Видео: 720x384, 23.976 fps, ~1804 kbps, 0.27 bit/pixel
Звук:
Аудио rus: AC3, 48 kHz, 2 ch, 192 Kbps
Субтитры: отсутствуют
Реклама: присутствует
Семпл

MediaInfo:

General
Complete name : D:The.Song.of.Sway.Lake.2017.WEBRip.HiWayGropeThe.Song.of.Sway.Lake.2017.WEBRip.HiWayGrope.avi
Format : AVI
Format/Info : Audio Video Interleave
Format profile : OpenDML
File size : 1.33 GiB
Duration : 1 h 34 min
Overall bit rate : 2 004 kb/s
Writing application : Lavf57.71.100
Video
ID : 0
Format : MPEG-4 Visual
Format profile : Advanced Simple@L5
Format settings, BVOP : No
Format settings, QPel : No
Format settings, GMC : No warppoints
Format settings, Matrix : Default (H.263)
Codec ID : XVID
Codec ID/Hint : XviD
Duration : 1 h 34 min
Bit rate : 1 799 kb/s
Width : 720 pixels
Height : 384 pixels
Display aspect ratio : 1.85:1
Frame rate : 23.976 (24000/1001) FPS
Color space : YUV
Chroma subsampling : 4:2:0
Bit depth : 8 bits
Scan type : Progressive
Compression mode : Lossy
Bits/(Pixel*Frame) : 0.271
Stream size : 1.19 GiB (90%)
Writing library : XviD 67
Audio
ID : 1
Format : AC-3
Format/Info : Audio Coding 3
Commercial name : Dolby Digital
Codec ID : 2000
Duration : 1 h 34 min
Bit rate mode : Constant
Bit rate : 192 kb/s
Channel(s) : 2 channels
Channel layout : L R
Sampling rate : 48.0 kHz
Frame rate : 31.250 FPS (1536 SPF)
Bit depth : 16 bits
Compression mode : Lossy
Stream size : 130 MiB (10%)
Alignment : Aligned on interleaves
Interleave, duration : 32 ms (0.77 video frame)
Service kind : Complete Main

Скриншоты

Релиз от: HiWay Grope
[Profile] [PM]
Display posts from previous:    

The time now is: Today 22:07

All times are GMT



You cannot post new topics in this forum
You cannot reply to topics in this forum
You cannot edit your posts in this forum
You cannot delete your posts in this forum
You cannot vote in polls in this forum
You cannot attach files in this forum
You cannot download files in this forum