Песня волшебного камня (Зиновий Ройзман) [1974, Кукольный мультфильм, VHSRip]

 
Автор Сообщение

TorrentFilm ®

Пол:

Стаж: 2 года

Сообщений: 7741



Награды: Нет

Торрент-статистика

Создавать темы 01-Янв-2016 00:18

[Цитировать]

Песня волшебного камня
Страна: СССР
Жанр: Кукольный мультфильм
Продолжительность: 00:15:07
Год выпуска: 1974
Русские субтитры: нет
Режиссёр: Зиновий Ройзман
Описание: По мотивам сказки Аркадия Гайдара "Горячий камень".
Доп. информация: „Узбекфильм“
Сценарий:М.Мелкумов
Оператор:В.Ковальский
Раздача группы:
Качество: VHSRip
Формат: AVI
Видео: 720x544 (1.32:1), 25 fps, XviD MPEG-4 ~1999 kbps avg, 0.20 bit/pixel
Аудио: 48 kHz, MPEG Layer 3, 1 ch, ~96.00 kbps avg
Субтитры: нет

Подробные технические данные

Format : AVIFormat/Info : Audio Video InterleaveFile size : 228 MiBDuration : 15mn 7sOverall bit rate : 2 106 KbpsWriting application : VirtualDubMod 1.5.10.3 | www.virtualdub-fr.org || (build 2550/release)Writing library : VirtualDubMod build 2550/release
VideoID : 0Format : MPEG-4 VisualFormat profile : Simple@L1Format settings, BVOP : NoFormat settings, QPel : NoFormat settings, GMC : No warppointsFormat settings, Matrix : Default (H.263)Codec ID : XVIDCodec ID/Hint : XviDDuration : 15mn 7sBit rate : 2 000 KbpsWidth : 720 pixelsHeight : 544 pixelsDisplay aspect ratio : 4:3Frame rate : 25.000 fpsColor space : YUVChroma subsampling : 4:2:0Bit depth : 8 bitsScan type : ProgressiveCompression mode : LossyBits/(Pixel*Frame) : 0.204Stream size : 216 MiB (95%)Writing library : Lavc53.33.0
AudioID : 1Format : MPEG AudioFormat version : Version 1Format profile : Layer 3Codec ID : 55Codec ID/Hint : MP3Duration : 15mn 7sBit rate mode : ConstantBit rate : 96.0 KbpsChannel(s) : 1 channelSampling rate : 48.0 KHzCompression mode : LossyStream size : 10.4 MiB (5%)Alignment : Aligned on interleavesInterleave, duration : 40 ms (1.00 video frame)Interleave, preload duration : 504 ms

Скриншоты

[Профиль] [ЛС]
Показать сообщения:    

Текущее время: Сегодня 19:37

Часовой пояс: GMT



Вы не можете начинать темы
Вы не можете отвечать на сообщения
Вы не можете редактировать свои сообщения
Вы не можете удалять свои сообщения
Вы не можете голосовать в опросах
Вы не можете прикреплять файлы к сообщениям
Вы не можете скачивать файлы