Песнь о зубре (Олег Белоусов) [1982, мультфильм рисованный, исторический, DVDRip]

 
Автор Сообщение

TorrentFilm ®

Пол:

Стаж: 2 года

Сообщений: 7741



Награды: Нет

Торрент-статистика

Создавать темы 26-Май-2015 00:04

[Цитировать]

Песнь о зубре
Страна: СССР
Производство: Беларусьфильм
Жанр: мультфильм рисованный, исторический
Продолжительность: 00:17:46
Год выпуска: 1982
Русские субтитры: нет
Режиссёр: Олег Белоусов
Описание: Мультипликационный фильм по мотивам одноименной поэмы Миколы Гусовского о борьбе против татарского нашествия в XV веке. 500 лет назад, вдали от Родины, в Риме, была написана эта поэма. Великий белорусский поэт эпохи Возрождения Микола Гусовский воспел в ней красоту родной земли, ее трудную судьбу, людей сильных и стойких духом, готовых постоять за свою свободу.
Качество: DVDRip
Формат: AVI
Видео: 720x544 (1.32:1), 25 fps, XviD MPEG-4 ~2140 kbps avg, 0.219 bit/pixel
Аудио: 48.0 kHz, MPEG Layer 3, 2 ch, ~128.00 kbps avg
Субтитры: Отсутствуют

Подробные технические данные

GeneralComplete name : E:\1\мультики\Песнь о зубре 1982.aviFormat : AVIFormat/Info : Audio Video InterleaveFile size : 290 MiBDuration : 17mn 46sOverall bit rate : 2 278 KbpsWriting application : VirtualDubMod 1.5.4.1 (build 2178/release)Writing library : VirtualDubMod build 2178/release
VideoID : 0Format : MPEG-4 VisualFormat profile : Advanced Simple@L5Format settings, BVOP : 1Format settings, QPel : NoFormat settings, GMC : No warppointsFormat settings, Matrix : CustomCodec ID : XVIDCodec ID/Hint : XviDDuration : 17mn 46sBit rate : 2 140 KbpsWidth : 720 pixelsHeight : 544 pixelsDisplay aspect ratio : 4:3Frame rate : 25.000 fpsColor space : YUVChroma subsampling : 4:2:0Bit depth : 8 bitsScan type : ProgressiveCompression mode : LossyBits/(Pixel*Frame) : 0.219Stream size : 272 MiB (94%)Writing library : XviD 1.0.0 (UTC 2004-05-09)
AudioID : 1Format : MPEG AudioFormat version : Version 1Format profile : Layer 3Mode : Joint stereoMode extension : MS StereoCodec ID : 55Codec ID/Hint : MP3Duration : 17mn 46sBit rate mode : ConstantBit rate : 128 KbpsChannel count : 2 channelsSampling rate : 48.0 KHzCompression mode : LossyStream size : 16.3 MiB (6%)Alignment : Aligned on interleavesInterleave, duration : 40 ms (1.00 video frame)Interleave, preload duration : 504 ms

Скриншоты

[Профиль] [ЛС]
Показать сообщения:    

Текущее время: Сегодня 16:54

Часовой пояс: GMT



Вы не можете начинать темы
Вы не можете отвечать на сообщения
Вы не можете редактировать свои сообщения
Вы не можете удалять свои сообщения
Вы не можете голосовать в опросах
Вы не можете прикреплять файлы к сообщениям
Вы не можете скачивать файлы