Песни со второго этажа / Sånger från andra våningen (2000) BDRip 1080p by msltel

 
Автор Сообщение

Russian Mafia ®

Пол:

Стаж: 1 год 8 месяцев

Сообщений: 4256



Награды: 10 (Подробнее)

Mega Seeder 4 (Количество: 1) Mega Seeder 2 (Количество: 1) Top Releaser 5 (Количество: 1)
Торрент-статистика

Создавать темы 15-Сен-2015 10:05

[Цитировать]

Название: Песни со второго этажа
Оригинальное название: Sånger från andra våningen
Год выпуска: 2000
Страна: Швеция, Норвегия, Дания
Жанр: драма, комедия
Продолжительность: 01:38:52
Перевод: профессиональный двухголосый
Режиссёр: Рой Андерссон
В ролях: Ларс Норд, Стефан Ларссон, Бенгт С. Карлссон, Торбьёрн Фальстрём, Стэн Андерссон, Роландо Нуньес, Лусио Вусина, Пер Йёрнелиус, Питер Рот, Клас-Гёста Олссон
Описание: Однажды вечером в Стокгольме начинает происходить ряд невероятно странных, не связанных друг с другом событий. Немолодой клерк сходит с ума после безжалостного увольнения с работы. На улице жестоко избивают заблудившегося эмигранта… Фокусник совершает роковую ошибку прямо во время своего представления, по-настоящему распилив несчастного добровольца из публики… Растерянного человека, в отчаянии спалившего дотла свой мебельный магазин, преследует призрак удавленника… Огромная толпа важных и мрачных взрослых людей приносит в жертву невинную девочку… В городе немыслимые пробки; по улицам чинно ходят хорошо одетые чиновники, хлещущие себя плетьми… Похоже, пришел тот час, которого все так давно боялись…

Качество: BDRip 1080p Сравнение с исходником
Формат: MKV
Видео: MPEG-4 AVC, 15.6 Mбит/с, 1808x1080, 24 кадра/с
Аудио 1: русский, AC3, 192 kbps, 2 ch, 48 kHz [профессиональный двухголосый]
Аудио 2: шведский, DTS, 768 kbps, 6 ch, 48 kHz [оригинал]
Субтитры 1: русские
Субтитры 2: английские

Награды

Каннский кинофестиваль, 2000 год
Победитель (1):
Приз жюри
Номинации (1):
Золотая пальмовая ветвь

Инфо-файл

Общее
Уникальный идентификатор : 176016572987950244108036810095911796631 (0x846B8F119E69633CB72B02A60FA87F97)
Полное имя : D:VideoПесни со второго этажа.2000.BDRip.1080p.mkv
Формат : Matroska
Версия формата : Version 4 / Version 2
Размер файла : 11,7 Гбайт
Продолжительность : 1 ч. 38 м.
Общий поток : 16,9 Мбит/сек
Название фильма : BDRip -- STarankov
Дата кодирования : UTC 2015-09-15 02:22:13
Программа кодирования : mkvmerge v8.2.0 ('World of Adventure') 64bit
Библиотека кодирования : libebml v1.3.1 + libmatroska v1.4.2
DURATION : 01:38:52.736000000
NUMBER_OF_FRAMES : 556194
NUMBER_OF_BYTES : 569542912
_STATISTICS_WRITING_APP : mkvmerge v8.2.0 ('World of Adventure') 64bit
_STATISTICS_WRITING_DATE_UTC : 2015-09-15 02:22:13
_STATISTICS_TAGS : BPS DURATION NUMBER_OF_FRAMES NUMBER_OF_BYTES
Видео
Идентификатор : 1
Формат : AVC
Формат/Информация : Advanced Video Codec
Профиль формата : High@L4.1
Параметр CABAC формата : Да
Параметр ReFrames формата : 4 кадра
Идентификатор кодека : V_MPEG4/ISO/AVC
Продолжительность : 1 ч. 38 м.
Битрейт : 15,6 Мбит/сек
Ширина : 1808 пикселей
Высота : 1080 пикселей
Соотношение сторон : 5:3
Режим частоты кадров : Постоянный
Частота кадров : 24,000 кадра/сек
Цветовое пространство : YUV
Субдискретизация насыщенности : 4:2:0
Битовая глубина : 8 бит
Тип развёртки : Прогрессивная
Бит/(Пиксели*Кадры) : 0.334
Размер потока : 10,8 Гбайт (92%)
Библиотека кодирования : x264 core 146 r2538 121396c
Настройки программы : cabac=1 / ref=4 / deblock=1:-2:-2 / analyse=0x3:0x113 / me=umh / subme=10 / psy=1 / psy_rd=1.00:0.15 / mixed_ref=1 / me_range=32 / chroma_me=1 / trellis=2 / 8x8dct=1 / cqm=0 / deadzone=21,11 / fast_pskip=1 / chroma_qp_offset=-3 / threads=6 / lookahead_threads=1 / sliced_threads=0 / nr=0 / decimate=1 / interlaced=0 / bluray_compat=0 / constrained_intra=0 / bframes=11 / b_pyramid=2 / b_adapt=2 / b_bias=0 / direct=1 / weightb=1 / open_gop=0 / weightp=2 / keyint=230 / keyint_min=23 / scenecut=40 / intra_refresh=0 / rc_lookahead=40 / rc=crf / mbtree=0 / crf=20.0 / qcomp=0.60 / qpmin=0 / qpmax=69 / qpstep=4 / vbv_maxrate=40000 / vbv_bufsize=50000 / crf_max=0.0 / nal_hrd=none / filler=0 / ip_ratio=1.40 / pb_ratio=1.30 / aq=1:1.00
Язык : Swedish
Default : Да
Forced : Нет
DURATION : 01:38:52.709000000
NUMBER_OF_FRAMES : 142385
NUMBER_OF_BYTES : 11844743430
_STATISTICS_WRITING_APP : mkvmerge v8.2.0 ('World of Adventure') 64bit
_STATISTICS_WRITING_DATE_UTC : 2015-09-15 02:22:13
_STATISTICS_TAGS : BPS DURATION NUMBER_OF_FRAMES NUMBER_OF_BYTES
Аудио #1
Идентификатор : 2
Формат : AC-3
Формат/Информация : Audio Coding 3
Расширение режима : CM (complete main)
Параметр Endianness формата : Big
Идентификатор кодека : A_AC3
Продолжительность : 1 ч. 38 м.
Вид битрейта : Постоянный
Битрейт : 192 Кбит/сек
Каналы : 2 канала
Расположение каналов : Front: L R
Частота : 48,0 КГц
Метод сжатия : С потерями
Размер потока : 136 Мбайт (1%)
Заголовок : DVO
Язык : Russian
Default : Да
Forced : Нет
Аудио #2
Идентификатор : 3
Формат : DTS
Формат/Информация : Digital Theater Systems
Режим : 16
Параметр Endianness формата : Big
Идентификатор кодека : A_DTS
Продолжительность : 1 ч. 38 м.
Вид битрейта : Постоянный
Битрейт : 768 Кбит/сек
Каналы : 6 каналов
Расположение каналов : Front: L C R, Side: L R, LFE
Частота : 48,0 КГц
Битовая глубина : 16 бит
Метод сжатия : С потерями
Размер потока : 543 Мбайт (5%)
Заголовок : Original
Язык : Swedish
Default : Нет
Forced : Нет
Текст #1
Идентификатор : 4
Формат : UTF-8
Идентификатор кодека : S_TEXT/UTF8
Идентификатор кодека/Информация : UTF-8 Plain Text
Заголовок : русский
Язык : Russian
Default : Нет
Forced : Нет
Текст #2
Идентификатор : 5
Формат : UTF-8
Идентификатор кодека : S_TEXT/UTF8
Идентификатор кодека/Информация : UTF-8 Plain Text
Заголовок : английский
Default : Нет
Forced : Нет

Скриншоты

[Профиль] [ЛС]
Показать сообщения:    

Текущее время: Сегодня 08:58

Часовой пояс: GMT



Вы не можете начинать темы
Вы не можете отвечать на сообщения
Вы не можете редактировать свои сообщения
Вы не можете удалять свои сообщения
Вы не можете голосовать в опросах
Вы не можете прикреплять файлы к сообщениям
Вы не можете скачивать файлы