Пески забвения / Sands of Oblivion (Дэвид Флорес / David Flores) [2007, США, боевик, приключения, фэнтези, BDRip] MVO (R5) + Sub Rus + Original Eng

 
Автор Сообщение

TorrentFilm ®

Пол:

Стаж: 2 года

Сообщений: 7741



Награды: Нет

Торрент-статистика

Создавать темы 02-Ноя-2015 00:09

[Цитировать]

Пески забвения / Sands of Oblivion
Страна: США
Жанр: боевик, приключения, фэнтези
Год выпуска: 2007
Продолжительность: 01:36:25
Перевод: Профессиональный (многоголосый закадровый) R5
Cубтитры: русские, немецкие
Оригинальная аудиодорожка: английский

Режиссер: Дэвид Флорес / David Flores
В ролях: Морена Баккарин, Адам Болдуин, Виктор Уэбстер, Джордж Кеннеди, Ази Тесфай, Ричард Кайнд, Джон Энистон, Кристина Сиско, Гриннелл Моррис, Алан Кемпер Армани
Описание: Великий фараон прогневал богов. В наказание они наслали на Египетское царство демонов пустыни. Чтобы защитить своего правителя и его народ от темных сил, жрецы совершили тайный обряд. Принеся человеческую жертву и захоронив в песках священный амулет, они попросили защиты у Анубиса, бога загробного мира. Приняв дар, Анубис усмирил демонов пустыни, и в Египте воцарился мир… Но тысячи лет спустя археологи нашли древний амулет. И, чтобы вернуть себе символ абсолютной власти над темными силами, Анубис вновь появляется в мире людей…
Качество видео: BDRip
Формат видео: AVI
Видео: 704x400 (1.76:1), 23.976 fps, XviD build 73 ~1705 kbps avg, 0.25 bit/pixel
Аудио: 48 kHz, AC3 Dolby Digital, 3/2 (L,C,R,l,r) + LFE ch, ~448 kbps - многоголосый
Аудио: 48 kHz, AC3 Dolby Digital, 3/2 (L,C,R,l,r) + LFE ch, ~448 kbps - оригинал (отдельным файлом)

MediaInfo

Общее
Полное имя : H:\Sands.of.Oblivion.2007.bdrip_[1.46]_[teko]\Sands.of.Oblivion.2007.bdrip_[1.46].avi
Формат : AVI
Формат/Информация : Audio Video Interleave
Размер файла : 1,46 Гбайт
Продолжительность : 1 ч. 36 м.
Общий поток : 2163 Кбит/сек
Программа кодирования : VirtualDubMod 1.5.10.3 | www.virtualdub-fr.org || (build 2550/release)
Библиотека кодирования : VirtualDubMod build 2550/release
Видео
Идентификатор : 0
Формат : MPEG-4 Visual
Профиль формата : Advanced Simple@L5
Параметр BVOP формата : 1
Параметр QPel формата : Нет
Параметр GMC формата : Без точки перехода
Параметр матрицы формата : Выборочная
Идентификатор кодека : XVID
Идентификатор кодека/Подсказка : XviD
Продолжительность : 1 ч. 36 м.
Битрейт : 1706 Кбит/сек
Ширина : 704 пикселя
Высота : 400 пикселей
Соотношение сторон : 16:9
Частота кадров : 23,976 кадра/сек
Цветовое пространство : YUV
Субдискретизация насыщенности : 4:2:0
Битовая глубина : 8 бит
Тип развёртки : Прогрессивная
Метод сжатия : С потерями
Бит/(Пиксели*Кадры) : 0.253
Размер потока : 1,15 Гбайт (79%)
Библиотека кодирования : XviD 73
Аудио
Идентификатор : 1
Формат : AC-3
Формат/Информация : Audio Coding 3
Расширение режима : CM (complete main)
Параметр Endianness формата : Big
Идентификатор кодека : 2000
Продолжительность : 1 ч. 36 м.
Вид битрейта : Постоянный
Битрейт : 448 Кбит/сек
Каналы : 6 каналов
Расположение каналов : Front: L C R, Side: L R, LFE
Частота : 48,0 КГц
Битовая глубина : 16 бит
Метод сжатия : С потерями
Размер потока : 309 Мбайт (21%)
Выравнивание : Разделение по промежуткам
Продолжительность промежутка : 42 мс. (1,00 видеокадр)
Время предзагрузки промежутка : 500 мс.
Релиз группы:
--
[Профиль] [ЛС]
Показать сообщения:    

Текущее время: Сегодня 03:25

Часовой пояс: GMT



Вы не можете начинать темы
Вы не можете отвечать на сообщения
Вы не можете редактировать свои сообщения
Вы не можете удалять свои сообщения
Вы не можете голосовать в опросах
Вы не можете прикреплять файлы к сообщениям
Вы не можете скачивать файлы