Перчатка Авроры / Серии: 1-4 из 4 (Игорь Драка) [2016,детектив, мелодрама, SATRip-AVC]

 
Автор Сообщение

Aleksan66 ®

Стаж: 2 месяца 16 дней

Сообщений: 10



Награды: Нет

Торрент-статистика

Создавать темы 03-Окт-2016 00:37

[Цитировать]

Перчатка Авроры --
Год выпуска: 2016
Производство: Россия, "ГК «Приор»",ООО "ТелеМастер"
Жанр: детектив, мелодрама
Продолжительность: 00:46:00
Субтитры: нет
--
Режиссёр: Игорь Драка
--
В ролях: Елена Вожакина, Артем Карасев, Степан Бекетов, Сергей Кошонин, Анастасия Тюнина, Елена Радевич, Галина Бокашевская
Описание: Аврора, дочь богатых родителей и мать девочек-близняшек, постоянно попадает в разные истории. Она собирается замуж за учёного-историка Павла. Незадолго до свадьбы она получает в подарок старинную шкатулку с надписью "Аврора", какими-то письмами на финском и одной дамской перчаткой внутри. С помощью Павла героиня выясняет, что шкатулка и письма принадлежали знаменитой красавице пушкинских времён Авроре Шернваль, над которой, по слухам, тяготело проклятие: все любимые ею мужчины, включая отца и сына, безвременно скончались.
--

--
Релиз от:
--
Качество: SATRip
Формат: MKV
Видео кодек: H.264
Аудио кодек: AC3
Видео: MPEG4 Video (H264), 720x400, 25fps,1500 Kbps,bit/pixel 0.208
Аудио: AC3 48000Hz, stereo, 192kbps,2 ch
--

MI

Общее
Уникальный идентификатор : 176747271266578816015430156056567118328 (0x84F8494681D4D00996869FDA448679F8)
Полное имя : K:\Перчатка Авроры\01 серия_Перчатка Авроры_rip by_Aleksan55.mkv
Формат : Matroska
Версия формата : Version 2
Размер файла : 538 Мбайт
Продолжительность : 44 м.
Общий поток : 1694 Кбит/сек
Дата кодирования : UTC 2016-10-02 15:51:25
Программа кодирования : mkvmerge v7.8.0 ('River Man') 32bit built on Apr 3 2015 12:11:22
Библиотека кодирования : libebml v1.3.1 + libmatroska v1.4.2
Видео
Идентификатор : 1
Формат : AVC
Формат/Информация : Advanced Video Codec
Профиль формата : High@L4.1
Параметр CABAC формата : Да
Параметр ReFrames формата : 12 кадров
Идентификатор кодека : V_MPEG4/ISO/AVC
Продолжительность : 44 м.
Битрейт : 1500 Кбит/сек
Ширина : 720 пикселей
Высота : 400 пикселей
Соотношение сторон : 16:9
Режим частоты кадров : Постоянный
Частота кадров : 25,000 кадров/сек
Цветовое пространство : YUV
Субдискретизация насыщенности : 4:2:0
Битовая глубина : 8 бит
Тип развёртки : Прогрессивная
Бит/(Пиксели*Кадры) : 0.208
Размер потока : 467 Мбайт (87%)
Библиотека кодирования : x264 core 148 r2638 7599210
Настройки программы : cabac=1 / ref=12 / deblock=1:0:0 / analyse=0x3:0x133 / me=umh / subme=10 / psy=1 / psy_rd=1.00:0.00 / mixed_ref=0 / me_range=32 / chroma_me=0 / trellis=2 / 8x8dct=1 / cqm=0 / deadzone=21,11 / fast_pskip=0 / chroma_qp_offset=-2 / threads=6 / lookahead_threads=1 / sliced_threads=0 / nr=0 / decimate=1 / interlaced=0 / bluray_compat=0 / constrained_intra=0 / bframes=12 / b_pyramid=2 / b_adapt=2 / b_bias=0 / direct=3 / weightb=1 / open_gop=0 / weightp=2 / keyint=250 / keyint_min=25 / scenecut=40 / intra_refresh=0 / rc_lookahead=40 / rc=2pass / mbtree=1 / bitrate=1500 / ratetol=1.0 / qcomp=0.80 / qpmin=0 / qpmax=39 / qpstep=4 / cplxblur=20.0 / qblur=0.5 / ip_ratio=1.40 / aq=1:1.20
Default : Да
Forced : Нет
Цветовой диапазон : Limited
Основные цвета : BT.601 PAL
Характеристики трансфера : BT.470 System B, BT.470 System G
Коэффициенты матрицы : BT.601
Аудио
Идентификатор : 2
Формат : AC-3
Формат/Информация : Audio Coding 3
Расширение режима : CM (complete main)
Параметр Endianness формата : Big
Идентификатор кодека : A_AC3
Продолжительность : 44 м.
Вид битрейта : Постоянный
Битрейт : 192 Кбит/сек
Каналы : 2 канала
Расположение каналов : Front: L R
Частота : 48,0 КГц
Метод сжатия : С потерями
Размер потока : 61,0 Мбайт (11%)
Default : Да
Forced : Нет
--

Скриншоты

--Рекламы нет.
[Профиль] [ЛС]
Кто просматривает тему:

Форум Тема Автор Размер
Отечественные cериалы Перчатка Авроры [01-04 из 04] (2016) WEB-DLRip достали все 2.14 GB
Показать сообщения:    

Текущее время: Сегодня 06:15

Часовой пояс: GMT



Вы не можете начинать темы
Вы не можете отвечать на сообщения
Вы не можете редактировать свои сообщения
Вы не можете удалять свои сообщения
Вы не можете голосовать в опросах
Вы не можете прикреплять файлы к сообщениям
Вы не можете скачивать файлы