Перст Божий / Совершенно неожиданно / Etsba Elohim / Out of the Blue (Игаль Бурштейн / Yigal Bursztyn) [2008, Израиль, комедия, SATRip] Sub Rus + Original Heb

 
Автор Сообщение

TorrentFilm ®

Пол:

Стаж: 2 года

Сообщений: 7741



Награды: Нет

Торрент-статистика

Создавать темы 29-Окт-2015 00:10

[Цитировать]

Перст Божий \ Совершенно неожиданно / Etsba Elohim
Страна: Израиль
Жанр: комедия
Год выпуска: 2008
Продолжительность: 01:30:16
Перевод: Субтитры
Cубтитры: русские
Оригинальная аудиодорожка: иврит
Режиссер: Игаль Бурштейн / Yigal Bursztyn
В ролях: Алон Абутбуль, Моше Ивги, Дорит Бар Ор, Нир Леви, Захавит Паси
Описание: Шабтай подрабатывает перевозками и скупкой старой мебели. Его работник Герцль, всегда улыбчив и бодр. Шабтай, напротив, всегда хмур и хочет спать. И для этого у него есть достаточно хорошая причина, во снах к нему регулярно является рыжеволосая красавица. А Герцель влюблен в дочь Шабтая, Батью.
Перст Божий – это урбанистическая сказка, современная версия истории про Золушку. Вместо бедной грязули - два неприкаянных мужика, вместо принца – принцесса, вместо хрустальной туфелки – теннисный стол на задворках районного клуба.
Доп. информация: Огромное спасибо abraka за предоставленную запись.
Номинант на 9 премий Офир 2008 включая лучший фильм.
Сэмпл: http://multi-up.com/1072829
Качество видео: SATRip
Формат видео: AVI
Видео: Xvid 720x544 25fps 1994kbps [V: mpeg4 advanced simple profile, yuv420p, 720x544, 1994 kb/s]
Аудио: MP3 48000Hz stereo 128kbps [A: mp3, 48000 Hz, stereo, 128 kb/s]
Формат субтитров: hardsub (неотключаемые)

MediaInfo

General
Complete name : C:\downloads\PERST BOGII.avi
Format : AVI
Format/Info : Audio Video Interleave
File size : 1.35 GiB
Duration : 1h 30mn
Overall bit rate : 2 132 Kbps
Video
ID : 0
Format : MPEG-4 Visual
Format profile : Advanced Simple@L5
Format settings, BVOP : 2
Format settings, QPel : No
Format settings, GMC : No warppoints
Format settings, Matrix : Default (H.263)
Codec ID : XVID
Codec ID/Hint : XviD
Duration : 1h 30mn
Bit rate : 1 995 Kbps
Width : 720 pixels
Height : 544 pixels
Display aspect ratio : 4:3
Frame rate : 25.000 fps
Color space : YUV
Chroma subsampling : 4:2:0
Bit depth : 8 bits
Scan type : Progressive
Compression mode : Lossy
Bits/(Pixel*Frame) : 0.204
Stream size : 1.26 GiB (94%)
Writing library : XviD 73
Audio
ID : 1
Format : MPEG Audio
Format version : Version 1
Format profile : Layer 3
Mode : Joint stereo
Mode extension : MS Stereo
Codec ID : 55
Codec ID/Hint : MP3
Duration : 1h 30mn
Bit rate mode : Constant
Bit rate : 128 Kbps
Channel(s) : 2 channels
Sampling rate : 48.0 KHz
Compression mode : Lossy
Stream size : 83.0 MiB (6%)
Alignment : Split accross interleaves
Interleave, duration : 40 ms (1.00 video frame)
Interleave, preload duratio : 500 ms

Скриншоты





[Профиль] [ЛС]

Создавать темы 12-Июн-2016 08:50 (спустя 7 месяцев 14 дней)

Топик был перенесен из форума Фильмы 2011 года в форум Фильмы 2006-2008 года
Russian Mafia
 
Кто просматривает тему:

Показать сообщения:    

Текущее время: Сегодня 14:26

Часовой пояс: GMT



Вы не можете начинать темы
Вы не можете отвечать на сообщения
Вы не можете редактировать свои сообщения
Вы не можете удалять свои сообщения
Вы не можете голосовать в опросах
Вы не можете прикреплять файлы к сообщениям
Вы не можете скачивать файлы