Перси Джексон и похититель молний / Percy Jackson & the Olympians: The Lightning Thief (Крис Коламбус / Chris Columbus) [2010, США, Фэнтези, Приключения, Семейный, HDTVRip] MVO (1 канал)

 
Автор Сообщение

painkiller ®

Стаж: 2 года 3 месяца

Сообщений: 582



Награды: Нет

Торрент-статистика

Создавать темы 14-Авг-2014 09:12

[Цитировать]

Перси Джексон и похититель молний / Percy Jackson & the Olympians: The Lightning Thief
Страна: США
Жанр: Фэнтези, Приключения, Семейный
Год выпуска: 2010
Продолжительность: 01:49:20
Перевод: Профессиональный (многоголосый закадровый) 1 канал
Cубтитры: нет
Оригинальная аудиодорожка: нет
Режиссер: Крис Коламбус / Chris Columbus
В ролях: Логан Лерман, Брэндон Т. Джексон, Александра Даддарио, Джейк Эйбел, Шон Бин, Пирс Броснан, Стив Куган, Розарио Доусон, Мелина Канакаридис, Кэтрин Кинери и др.
Описание: Главный персонаж — мальчик, узнавший, что его отец — греческий бог. В сопровождении сатира и дочери Афины он отправляется в опасное путешествие, чтобы примирить богов.
Доп. информация: Рип с канала Первый HD. Из видеоряда удален логотип канала, остались периодические вставки с названием фильма. HDTV и BD имеют разное наполнение кадра http://screenshotcomparison.com/comparison/76629
Сэмпл: http://multi-up.com/976652
Качество видео: HDTVRip
Формат видео: AVI
Видео: MPEG4, XviD, 720x400 (16/9), 25.000 fps, 1 700 Kbps (0.236 bit/pixel)
Аудио: AC-3, 48.0 KHz, 2 ch, 192 Kbps, CBR

MediaInfo

Общее
Полное имя : K:\Перси Джексон и похититель молний.avi
Формат : AVI
Формат/Информация : Audio Video Interleave
Размер файла : 1,45 Гбайт
Продолжительность : 1 ч. 49 м.
Общий поток : 1902 Кбит/сек
Название фильма : Перси Джексон и похититель молний / Percy Jackson & the Olympians: The Lightning Thief (2010)
Программа кодирования : VirtualDubMod 1.5.10.2 (build 2540/release)
Библиотека кодирования : VirtualDubMod build 2540/release
Правообладатель : miha2154
Видео
Идентификатор : 0
Формат : MPEG-4 Visual
Профиль формата : Advanced Simple@L5
Параметр BVOP формата : 2
Параметр QPel формата : Нет
Параметр GMC формата : Без точки перехода
Параметр матрицы формата : Default (MPEG)
Идентификатор кодека : XVID
Идентификатор кодека/Подсказка : XviD
Продолжительность : 1 ч. 49 м.
Битрейт : 1700 Кбит/сек
Ширина : 720 пикселей
Высота : 400 пикселей
Соотношение сторон : 16:9
Частота кадров : 25,000 кадров/сек
Цветовое пространство : YUV
Субдискретизация насыщенности : 4:2:0
Битовая глубина : 8 бит
Тип развёртки : Прогрессивная
Метод сжатия : С потерями
Бит/(Пиксели*Кадры) : 0.236
Размер потока : 1,30 Гбайт (89%)
Библиотека кодирования : XviD 1.1.0 (UTC 2005-11-22)
Аудио
Идентификатор : 1
Формат : AC-3
Формат/Информация : Audio Coding 3
Расширение режима : CM (complete main)
Параметр Endianness формата : Big
Идентификатор кодека : 2000
Продолжительность : 1 ч. 49 м.
Вид битрейта : Постоянный
Битрейт : 192 Кбит/сек
Каналы : 2 канала
Расположение каналов : Front: L R
Частота : 48,0 КГц
Битовая глубина : 16 бит
Метод сжатия : С потерями
Размер потока : 150 Мбайт (10%)
Выравнивание : Разделение по промежуткам
Продолжительность промежутка : 40 мс. (1,00 видеокадр)
Время предзагрузки промежутка : 500 мс.
Заголовок : Профессиональный (многоголосый закадровый) 1 канал

Скриншоты

[Профиль] [ЛС]

Создавать темы 06-Авг-2015 23:15 (спустя 11 месяцев 23 дня)

Топик был перенесен из форума Фильмы до 2014 года в форум Фильмы до 2012 года
sergej644
 

Создавать темы 12-Июн-2016 07:54 (спустя 1 год 9 месяцев)

Топик был перенесен из форума Фильмы 2011 года в форум Фильмы 2010 года
Russian Mafia
 
Кто просматривает тему:

Форум Тема Автор Размер
Action Prince of Persia / Принц Персии [L] [Multi5] (2008) (1.0) TorrentFilm 7.22 GB
Action Prince of Persia the two thrones / Принц Персии Два Трона [RePack] [RUS / RUS] (2006) reversefile 827 MB
Action Prince of Persia: The Sands of Time / Принц Персии: Пески Времени [L|GOG] [ENG / ENG] (2003) (1.81) reversefile 988 MB
Action Prince of Persia: The Two Thrones / Принц Персии: Два Трона [L|GOG] [ENG / ENG] (2005) (1.1) reversefile 1.36 GB
Action Prince of Persia: Warrior Within / Принц Персии: Схватка с Судьбой [L|GOG] [ENG / ENG] (2004) (1.1) reversefile 3.15 GB
Фильмы 2009 года Никто не знает о персидских котах / Kasi az gorbehaye irani khabar nadareh / No One Knows About Persian Cats (Бахман Гобади / Bahman Ghobadi) [2009, Иран, Драма, Музыкальный, DVDRip] Sub Rus TorrentFilm 1.22 GB
Зарубежные сериалы Ответный удар / Strike back / Сезон: 1 / Серии: 1-6 из 6 (Дэниэл Персивал, Эдвард Холл, Билл Иглз) [2010, Боевик, триллер, HDRip] MVO (Русский Репортаж) + Original Russian Mafia 3.94 GB
Зарубежные сериалы Ответный удар / Strike back / Сезон: 2 / Серии: 1-10 из 10 (Дэниэл Персивал, Эдвард Холл, Билл Иглз) [2011, Боевик, триллер, HDRip] MVO (Sony Turbo) + Original Russian Mafia 4.89 GB
Показать сообщения:    

Текущее время: Сегодня 20:02

Часовой пояс: GMT



Вы не можете начинать темы
Вы не можете отвечать на сообщения
Вы не можете редактировать свои сообщения
Вы не можете удалять свои сообщения
Вы не можете голосовать в опросах
Вы не можете прикреплять файлы к сообщениям
Вы не можете скачивать файлы