Пернатая банда / El Americano: The Movie (2015) WEBRip 720p| Чистый звук

 
Автор Сообщение

BOSS ®

Пол:

Стаж: 2 года 1 месяц

Сообщений: 3718

Откуда: ODESSA



Награды: 20 (Подробнее)

Top Keeper 2 (Количество: 1) Mega Seeder 2 (Количество: 1) Mega Seeder 5 (Количество: 1)
Торрент-статистика

Создавать темы 10-Апр-2016 16:24

[Цитировать]

Название: Пернатая банда
Оригинальное название: El Americano: The Movie
Год выхода: 2016
Жанр: мультфильм, , комедия, приключения, семейный
Режиссер: Рикардо Арнаиз, Майк Кункель, Рауль Гарсиа
В ролях:
Эдвард Джеймс Олмос, Рико Родригес, Чич Марин, Кейт дель Кастильо, Алекс Синтек, Эрик Эстрада, Пьер Анджело, Дон Чето, Рикардо Санчес и др.

Описание мультфильма:
Как и все подростки, попугай Куко обожает находить занятия поинтереснее, чем помогать старшим в скучных домашних делах. Например, фанатеть от своего любимого телегероя, крутого супер-пернатого Эль Американо! Все меняется, когда банда птиц-раздолбаев грозится забрать у отца Куко цирковую арену, поколениями принадлежащей их семье. Куко решает, что без помощи Эль Американо ну никак не обойтись и он отправляется в полное опасностей путешествие в Голливуд, в конце пути открыв супергероя внутри себя самого.
Страна: США, Мексика
Произхводство: Animex, Olmos Productions, Phil Roman Entertainment
Продолжительность: 01:28:04
Перевод: Дублированный (Чистый звук)
Субтитры: Отсутствуют

Файл
Формат: MKV
Качество: WEBRip 720р
Видео: MPEG-4 AVC, 4000 Kбит/с, 1280x720
Аудио: 48 kHz, AC3 Dolby Digital, 2/0 (L,R) ch, ~384 kbps

MediaInfo

Формат : Matroska
Версия формата : Version 2
Размер файла : 2,66 Гбайт
Продолжительность : 1 ч. 27 м.
Общий поток : 4330 Кбит/сек
Дата кодирования : UTC 2016-04-10 12:38:34
Программа кодирования : mkvmerge v6.1.0 ('Old Devil') built on Mar 4 2013 09:10:42
Библиотека кодирования : libebml v1.3.0 + libmatroska v1.4.0
Видео
Идентификатор : 1
Формат : AVC
Формат/Информация : Advanced Video Codec
Профиль формата : Baseline@L4
Параметр CABAC формата : Нет
Параметр ReFrames формата : 8 кадров
Идентификатор кодека : V_MPEG4/ISO/AVC
Продолжительность : 1 ч. 27 м.
Битрейт : 4000 Кбит/сек
Ширина : 1280 пикселей
Высота : 720 пикселей
Соотношение сторон : 16:9
Режим частоты кадров : Постоянный
Частота кадров : 25,000 кадров/сек
Цветовое пространство : YUV
Субдискретизация насыщенности : 4:2:0
Битовая глубина : 8 бит
Тип развёртки : Прогрессивная
Бит/(Пиксели*Кадры) : 0.174
Размер потока : 2,37 Гбайт (89%)
Библиотека кодирования : x264 core 130 r2273 b3065e6
Настройки программы : cabac=0 / ref=8 / deblock=1:-1:-1 / analyse=0x1:0x131 / me=umh / subme=7 / psy=1 / psy_rd=1.00:0.10 / mixed_ref=1 / me_range=16 / chroma_me=1 / trellis=2 / 8x8dct=0 / cqm=0 / deadzone=21,11 / fast_pskip=0 / chroma_qp_offset=-3 / threads=12 / lookahead_threads=2 / sliced_threads=0 / nr=0 / decimate=1 / interlaced=0 / bluray_compat=0 / constrained_intra=0 / bframes=0 / weightp=0 / keyint=250 / keyint_min=25 / scenecut=40 / intra_refresh=0 / rc_lookahead=50 / rc=abr / mbtree=1 / bitrate=4000 / ratetol=1.0 / qcomp=0.60 / qpmin=0 / qpmax=69 / qpstep=4 / ip_ratio=1.40 / aq=1:1.00
Default : Да
Forced : Нет
Аудио
Идентификатор : 2
Формат : AC-3
Формат/Информация : Audio Coding 3
Расширение режима : CM (complete main)
Параметр Endianness формата : Big
Идентификатор кодека : A_AC3
Продолжительность : 1 ч. 27 м.
Вид битрейта : Постоянный
Битрейт : 384 Кбит/сек
Каналы : 2 канала
Расположение каналов : Front: L R
Частота : 48,0 КГц
Частота кадров : 31,250 кадров/сек (1536 spf)
Метод сжатия : С потерями
Размер потока : 241 Мбайт (9%)
Default : Да
Forced : Нет

Скриншоты

[Профиль] [ЛС]
Показать сообщения:    

Текущее время: Сегодня 00:09

Часовой пояс: GMT



Вы не можете начинать темы
Вы не можете отвечать на сообщения
Вы не можете редактировать свои сообщения
Вы не можете удалять свои сообщения
Вы не можете голосовать в опросах
Вы не можете прикреплять файлы к сообщениям
Вы не можете скачивать файлы