Перл Харбор / Pearl Harbor (2001) BDRip 1080p

 
Автор Сообщение

Russian Mafia ®

Пол:

Стаж: 1 год 8 месяцев

Сообщений: 4257



Награды: 10 (Подробнее)

Mega Seeder 5 (Количество: 1) Top Releaser 5 (Количество: 1) Top Releaser 2 (Количество: 1)
Торрент-статистика

Создавать темы 08-Сен-2015 09:52

[Цитировать]

Информация о фильме
Название: Перл Харбор
Оригинальное название: Pearl Harbor
Год выхода: 2001
Жанр: боевик, драма, мелодрама, военный
Режиссер: Майкл Бэй
В ролях: Бен Аффлек, Джош Хартнетт, Кейт Бекинсейл, Кьюба Гудинг мл., Алек Болдуин, Дженнифер Гарнер, Уильям Фихтнер, Джон Войт, Том Сайзмор, Уильям Ли Скотт, Джэми Кинг, Дэн Эйкройд, Грег Зола, Юэн Бремнер, Сара Рю
О фильме:
Эта история двух друзей — летчиков. Их судьбы переплавились в топке Второй мировой войны. Их чувства были опалены языками великой страсти. Огонь стал для них вторым домом.
Мир рушился, прошлое скрылось в сумерках пожарищ, и теперь за будущее должен был бороться каждый, на земле и на небе, в дружбе и вражде.

Выпущено: США
Продолжительность: 03:03:05
Перевод: Дублированный + Оригинал
Файл
Кодек: x264
Качество: BDRip 1080p
Видео: 1920x800, 7750 Kbps, 23.976 fps
Аудио #1: AC-3, 6 ch, 640 kbps (Rus)
Аудио #2: AC-3, 6 ch, 640 kbps (Eng)
Субтитры: русские, английские

Скриншоты

MI

Общее
Уникальный идентификатор : 248771205753872541923922003230995082285 (0xBB27976905D39274991F99B7C6E56C2D)
Полное имя : Перл Харбор.2001.BDRip.1080p.Rus.Eng.mkv
Формат : Matroska
Версия формата : Version 4 / Version 2
Размер файла : 11,5 Гбайт
Продолжительность : 3 ч. 3 м.
Общий поток : 9023 Кбит/сек
Название фильма : Перл Харбор.2001
Дата кодирования : UTC 2013-04-27 14:57:46
Программа кодирования : mkvmerge v6.1.0 ('Old Devil') built on Mar 4 2013 09:10:42
Библиотека кодирования : libebml v1.3.0 + libmatroska v1.4.0
Видео
Идентификатор : 1
Формат : AVC
Формат/Информация : Advanced Video Codec
Профиль формата : High@L4.1
Параметр CABAC формата : Да
Параметр ReFrames формата : 5 кадров
Идентификатор кодека : V_MPEG4/ISO/AVC
Продолжительность : 3 ч. 3 м.
Битрейт : 7750 Кбит/сек
Ширина : 1920 пикселей
Высота : 800 пикселей
Соотношение сторон : 2,40:1
Режим частоты кадров : Постоянный
Частота кадров : 23,976 кадра/сек
Цветовое пространство : YUV
Субдискретизация насыщенности : 4:2:0
Битовая глубина : 8 бит
Тип развёртки : Прогрессивная
Бит/(Пиксели*Кадры) : 0.210
Размер потока : 9,68 Гбайт (84%)
Заголовок : Rip by Boriy
Библиотека кодирования : x264 core 130 r2273 b3065e6
Настройки программы : cabac=1 / ref=5 / deblock=1:0:0 / analyse=0x3:0x113 / me=umh / subme=10 / psy=1 / psy_rd=1.00:0.10 / mixed_ref=1 / me_range=32 / chroma_me=1 / trellis=2 / 8x8dct=1 / cqm=0 / deadzone=21,11 / fast_pskip=0 / chroma_qp_offset=-2 / threads=12 / lookahead_threads=1 / sliced_threads=0 / nr=0 / decimate=0 / interlaced=0 / bluray_compat=0 / constrained_intra=0 / bframes=5 / b_pyramid=2 / b_adapt=2 / b_bias=0 / direct=3 / weightb=1 / open_gop=0 / weightp=2 / keyint=240 / keyint_min=23 / scenecut=40 / intra_refresh=0 / rc=2pass / mbtree=0 / bitrate=7750 / ratetol=1.0 / qcomp=0.60 / qpmin=0 / qpmax=69 / qpstep=4 / cplxblur=20.0 / qblur=0.5 / ip_ratio=1.40 / pb_ratio=1.30 / aq=1:0.80
Язык : English
Default : Да
Forced : Нет
Аудио #1
Идентификатор : 2
Формат : AC-3
Формат/Информация : Audio Coding 3
Расширение режима : CM (complete main)
Параметр Endianness формата : Big
Идентификатор кодека : A_AC3
Продолжительность : 3 ч. 3 м.
Вид битрейта : Постоянный
Битрейт : 640 Кбит/сек
Каналы : 6 каналов
Расположение каналов : Front: L C R, Side: L R, LFE
Частота : 48,0 КГц
Битовая глубина : 16 бит
Метод сжатия : С потерями
Размер потока : 839 Мбайт (7%)
Заголовок : Дубляж
Язык : Russian
Default : Да
Forced : Нет
Аудио #2
Идентификатор : 3
Формат : AC-3
Формат/Информация : Audio Coding 3
Расширение режима : CM (complete main)
Параметр Endianness формата : Big
Идентификатор кодека : A_AC3
Продолжительность : 3 ч. 3 м.
Вид битрейта : Постоянный
Битрейт : 640 Кбит/сек
Каналы : 6 каналов
Расположение каналов : Front: L C R, Side: L R, LFE
Частота : 48,0 КГц
Битовая глубина : 16 бит
Метод сжатия : С потерями
Размер потока : 839 Мбайт (7%)
Заголовок : Оригинал
Язык : English
Default : Нет
Forced : Нет
Текст #1
Идентификатор : 4
Формат : UTF-8
Идентификатор кодека : S_TEXT/UTF8
Идентификатор кодека/Информация : UTF-8 Plain Text
Язык : Russian
Default : Нет
Forced : Нет
Текст #2
Идентификатор : 5
Формат : UTF-8
Идентификатор кодека : S_TEXT/UTF8
Идентификатор кодека/Информация : UTF-8 Plain Text
Язык : English
Default : Нет
Forced : Нет
Меню
00:00:00.000 : :Tennessee, 1923
00:04:42.031 : :The European War
00:04:59.090 : :Playing Chicken
00:08:30.760 : :Looking for Trouble
00:10:50.900 : :Medical Examination
00:16:49.675 : :A Nose for Champagne
00:20:08.123 : :Pickup Lines
00:23:23.151 : :Saying Goodbye
00:31:04.612 : :Flying Towards War
00:34:34.405 : :Messages
00:40:33.889 : :The Battle of Britain
00:43:43.287 : :A Fight for Respect
00:47:21.797 : :Rememberance
00:52:07.874 : :Time to Move On
00:58:47.273 : :Confusion
01:01:53.418 : :Pearl Harbor at Sunset
01:06:06.253 : :Spine-Tingling Feeling
01:12:15.372 : :"I'm Alive"
01:16:36.216 : :Fight at the Hula House
01:20:39.626 : :December 7Th
01:25:21.825 : :Hostility Imminent
01:27:48.054 : :First Strike
01:31:54.926 : :Airfield Attack
01:35:53.247 : :A Call to Arms
01:40:55.424 : :Trapped
01:44:36.561 : :Hospital Chaos
01:46:40.977 : :Takeoff
01:52:22.235 : :Airborne
01:56:50.211 : :Shooting Back
01:59:33.249 : :Aftermath
02:04:33.340 : :Declaration of War
02:08:47.344 : :Retaliation
02:12:28.065 : :Flying Out
02:18:44.190 : :Mission Briefing
02:23:01.948 : :Lightening the Load
02:26:41.042 : :Tip of the Sword
02:30:34.233 : :Launch Now!
02:35:56.930 : :The Enemy's Backyard
02:40:09.474 : :Empty Tanks
02:43:28.340 : :Pinned Down
02:45:21.077 : :Sacrifice
02:48:59.170 : :Home
02:51:06.756 : :Danny
02:52:34.761 : :End Credits
[Профиль] [ЛС]
Кто просматривает тему:

Показать сообщения:    

Текущее время: Сегодня 23:31

Часовой пояс: GMT



Вы не можете начинать темы
Вы не можете отвечать на сообщения
Вы не можете редактировать свои сообщения
Вы не можете удалять свои сообщения
Вы не можете голосовать в опросах
Вы не можете прикреплять файлы к сообщениям
Вы не можете скачивать файлы