Пересчёт / Recount (Джей Роуч / Jay Roach) [2008, США, драма, история, WEB-DLRip] AVO (Дольский)

 
Автор Сообщение

painkiller ®

Стаж: 2 года 3 месяца

Сообщений: 582



Награды: Нет

Торрент-статистика

Создавать темы 16-Авг-2014 01:26

[Цитировать]

Пересчёт / Recount«The future of the nation was hanging by a chad»- Год выхода: 2008
Жанр: драма, история
Страна: США / Everyman Pictures, HBO Films, Mirage Enterprises
Продолжительность: 01:55:56
Перевод: Авторский (одноголосый, закадровый) Андрей Дольский
Субтитры: нет-Режиссер: Джей Роуч / Jay Roach-В ролях: Кевин Спейси, Боб Бэлабан, Эд Бегли мл., Лора Дерн, Джон Хёрт, Дэнис Лири, Брюс МакГилл, Том Уилкинсон, Брюс Олтмен, Джейн Эткинсон, Гэри Басараба, Дерек Сесил, Ив Гордон, Марсия Джин Кертц, Митч Пилледжи, Рэймонд Форчион, Стив Дюмошель, Адам ЛеФевр, Этан С. Смит, Роберт Смолл, Марк Маколей, Патриция Гетти-Описание: В картине рассказывается об определяющем для американской политики периоде — подсчёте голосов после президентских выборов 2000 года. Действие картины начинается с событий, последовавших сразу после подсчёта голосов во Флориде, и завершается решением Верховного суда, подтвердившего победу Джорджа Буша.- -Сэмпл: http://multi-up.com/976976-Качество: WEB-DLRip [WEB-DL 720p / HDCLUB]
Формат: AVI
Видео: 656x368 (1.78:1), 23.976 fps, XviD build 73 ~1406 kbps avg, 0.24 bit/pixel
Аудио: 48 kHz, AC3 Dolby Digital, 3/2 (L,C,R,l,r) + LFE ch, ~384.00 kbps avg
-

Media Info

Формат                                   : AVI
Формат/Информация                        : Audio Video Interleave
Размер файла                             : 1,46 Гбайт
Продолжительность                        : 1 ч. 55 м.
Общий поток                              : 1800 Кбит/сек
Программа кодирования                    : VirtualDubMod 1.5.10.3 | www.virtualdub-fr.org || (build 2550/release)
Библиотека кодирования                   : VirtualDubMod build 2550/release
Видео
Идентификатор                            : 0
Формат                                   : MPEG-4 Visual
Профиль формата                          : Advanced Simple@L5
Параметр BVOP формата                    : 1
Параметр QPel формата                    : Нет
Параметр GMC формата                     : Без точки перехода
Параметр матрицы формата                 : Выборочная
Идентификатор кодека                     : XVID
Идентификатор кодека/Подсказка           : XviD
Продолжительность                        : 1 ч. 55 м.
Битрейт                                  : 1407 Кбит/сек
Ширина                                   : 656 пикселей
Высота                                   : 368 пикселей
Соотношение сторон                       : 16:9
Частота кадров                           : 23,976 кадра/сек
Цветовое пространство                    : YUV
Субдискретизация насыщенности            : 4:2:0
Битовая глубина                          : 8 бит
Тип развёртки                            : Прогрессивная
Метод сжатия                             : С потерями
Бит/(Пиксели*Кадры)                      : 0.243
Размер потока                            : 1,14 Гбайт (78%)
Библиотека кодирования                   : XviD 73
Аудио
Идентификатор                            : 1
Формат                                   : AC-3
Формат/Информация                        : Audio Coding 3
Расширение режима                        : CM (complete main)
Параметр Endianness формата              : Big
Идентификатор кодека                     : 2000
Продолжительность                        : 1 ч. 55 м.
Вид битрейта                             : Постоянный
Битрейт                                  : 384 Кбит/сек
Каналы                                   : 6 каналов
Расположение каналов                     : Front: L C R, Side: L R, LFE
Частота                                  : 48,0 КГц
Битовая глубина                          : 16 бит
Метод сжатия                             : С потерями
Размер потока                            : 318 Мбайт (21%)
Выравнивание                             : Разделение по промежуткам
Продолжительность промежутка             : 42  мс. (1,00 видеокадр)
Время предзагрузки промежутка            : 500  мс.

Скриншоты

--
[Профиль] [ЛС]

Создавать темы 06-Авг-2015 23:10 (спустя 11 месяцев 21 день)

Топик был перенесен из форума Фильмы до 2014 года в форум Фильмы до 2012 года
sergej644
 

Создавать темы 12-Июн-2016 08:51 (спустя 1 год 9 месяцев)

Топик был перенесен из форума Фильмы 2011 года в форум Фильмы 2006-2008 года
Russian Mafia
 
Показать сообщения:    

Текущее время: Сегодня 08:50

Часовой пояс: GMT



Вы не можете начинать темы
Вы не можете отвечать на сообщения
Вы не можете редактировать свои сообщения
Вы не можете удалять свои сообщения
Вы не можете голосовать в опросах
Вы не можете прикреплять файлы к сообщениям
Вы не можете скачивать файлы