Переступить черту / Walk the Line (2005) BDRip-AVC от MediaClub | Extended Cut | D, P

 
Автор Сообщение

Белочка ®

Пол:

Стаж: 5 лет 1 месяц

Сообщений: 2089



Награды: 1 (Подробнее)

Girls (Количество: 1)
Торрент-статистика

Создавать темы 12-Окт-2014 05:32

[Цитировать]

Информация о фильме
Название: Переступить черту
Оригинальное название: Walk the Line
Год выпуска: 2005
Жанр: Музыкальная мелодрама, биография
Режиссер: Джеймс Мэнголд
В ролях: Хоакин Феникс, Риз Уизерспун, Джиннифер Гудвин, Роберт Патрик, Даллас Робертс, Дэн Джон Миллер, Ларри Бэгби, Шелби Линн, Тайлер Хилтон, Сандра Эллис Лэфферти, Дэн Бин, Джефф Бэйли, Тим Уэйр, Том Пауэрс, Бен Тэйлор, Джим Райт
О фильме: Эта биографическая лента посвящена истории жизни легендарного певца в стиле кантри Джонни Кэша и его второй жены Джун Картер. Юность Кэша, родившегося в 1932 году в Арканзасе, была омрачена трагической гибелью его старшего брата и пренебрежительным отношением к нему со стороны отца, считавшего его плохим сыном. Военную службу будущий певец и музыкант проходил в Германии в рядах Военно-воздушных сил США. В 1954 году он женился на Вивиан, которая родила ему дочь, а в 1955-м, в возрасте 23 лет, выпустил свой первый хит «Cry, Cry, Cry». Вскоре Кэш отправился в турне по США вместе с Джерри Ли Льюисом, Элвисом Пресли и Джун Картер, о которой он безнадежно мечтал целых десять лет.

Страна: США, Германия
Студия: Catfish Productions, Fox 2000 Pictures, Konrad Pictures, Mars Media Beteiligungs, Tree Line Films
Продолжительность: 02:33:08
Перевод: Дублированный, профессиональный многоголосый
Файл
Кодек: x264
Видео: MPEG-4 AVC, 2274 Кбит/с, 1024x426, 23.976 кадр/с
Аудио #1: Русский (AC3, 6 ch, 384 Кбит/с) / Дублированный
Аудио #2: Русский (AC3, 6 ch, 384 Кбит/с) / Профессиональный многоголосый
Аудио #3: Английский (AC3, 6 ch, 448 Кбит/с)
Субтитры: Русские (форсированные, полные), английские
Семпл

MI

x264 [info]: frame I:1492 Avg QP:15.82 size: 68258
x264 [info]: frame P:46297 Avg QP:18.92 size: 23183
x264 [info]: frame B:172510 Avg QP:20.30 size: 8308
=================================
Уникальный идентификатор : 233402940090664828854592697568734647429 (0xAF97C5699E61C0FEA0A827C308C29485)
Полное имя : E:MCPerestupit.certu.2005.x264.BDRip(AVC)-MediaClubPerestupit.certu.2005.x264.BDRip(AVC)-MediaClub.mkv
Формат : Matroska
Версия формата : Version 4 / Version 2
Размер файла : 3,80 Гбайт
Продолжительность : 2 ч. 33 м.
Общий поток : 3553 Кбит/сек
Название фильма : -= Release MediaClub =-
Дата кодирования : UTC 2014-10-09 19:05:52
Программа кодирования : mkvmerge v7.2.0 ('On Every Street') 32bit built on Sep 13 2014 15:42:11
Библиотека кодирования : libebml v1.3.0 + libmatroska v1.4.1
DURATION : 02:33:08.320000000
NUMBER_OF_FRAMES : 287135
NUMBER_OF_BYTES : 514545920
_STATISTICS_WRITING_APP : mkvmerge v7.2.0 ('On Every Street') 32bit built on Sep 13 2014 15:42:11
_STATISTICS_WRITING_DATE_UTC : 2014-10-09 19:05:52
_STATISTICS_TAGS : BPS DURATION NUMBER_OF_FRAMES NUMBER_OF_BYTES
Attachment : Yes / Yes
Видео
Идентификатор : 1
Формат : AVC
Формат/Информация : Advanced Video Codec
Профиль формата : High@L4.1
Параметр CABAC формата : Да
Параметр ReFrames формата : 11 кадров
Идентификатор кодека : V_MPEG4/ISO/AVC
Продолжительность : 2 ч. 33 м.
Битрейт : 2274 Кбит/сек
Ширина : 1024 пикселя
Высота : 426 пикселей
Соотношение сторон : 2,40:1
Режим частоты кадров : Постоянный
Частота кадров : 23,976 кадра/сек
Цветовое пространство : YUV
Субдискретизация насыщенности : 4:2:0
Битовая глубина : 8 бит
Тип развёртки : Прогрессивная
Бит/(Пиксели*Кадры) : 0.217
Размер потока : 2,36 Гбайт (62%)
Заголовок : Perestupit.certu.2005.x264.BDRip(AVC)-neni
Библиотека кодирования : x264 core 142 r2409+42 04be48a tMod [8-bit@4:2:0 X86_64]
Настройки программы : cabac=1 / ref=11 / deblock=1:-2:-2 / analyse=0x3:0x133 / me=umh / subme=11 / psy=1 / fade_compensate=0.00 / psy_rd=1.00:0.20 / mixed_ref=1 / me_range=48 / chroma_me=1 / trellis=2 / 8x8dct=1 / cqm=0 / deadzone=21,11 / fast_pskip=0 / chroma_qp_offset=-3 / threads=9 / lookahead_threads=2 / sliced_threads=0 / nr=0 / decimate=0 / interlaced=0 / bluray_compat=0 / constrained_intra=0 / fgo=0 / bframes=10 / b_pyramid=2 / b_adapt=2 / b_bias=0 / direct=3 / weightb=1 / open_gop=0 / weightp=2 / keyint=240 / keyint_min=23 / scenecut=40 / intra_refresh=0 / rc=2pass / mbtree=0 / bitrate=2274 / ratetol=1.0 / qcomp=0.60 / qpmin=0:0:0 / qpmax=69:69:69 / qpstep=4 / cplxblur=20.0 / qblur=0.5 / ip_ratio=1.40 / pb_ratio=1.30 / aq=2:1.00 / aq-sensitivity=10.00 / aq-factor=1.00:1.00:1.00 / aq2=0 / aq3=0
Язык : English
Default : Да
Forced : Нет
DURATION : 02:33:08.304000000
NUMBER_OF_FRAMES : 220299
NUMBER_OF_BYTES : 2608436269
_STATISTICS_WRITING_APP : mkvmerge v7.2.0 ('On Every Street') 32bit built on Sep 13 2014 15:42:11
_STATISTICS_WRITING_DATE_UTC : 2014-10-09 19:05:52
_STATISTICS_TAGS : BPS DURATION NUMBER_OF_FRAMES NUMBER_OF_BYTES
Аудио #1
Идентификатор : 2
Формат : AC-3
Формат/Информация : Audio Coding 3
Расширение режима : CM (complete main)
Параметр Endianness формата : Big
Идентификатор кодека : A_AC3
Продолжительность : 2 ч. 33 м.
Вид битрейта : Постоянный
Битрейт : 384 Кбит/сек
Каналы : 6 каналов
Расположение каналов : Front: L C R, Side: L R, LFE
Частота : 48,0 КГц
Битовая глубина : 16 бит
Метод сжатия : С потерями
Размер потока : 421 Мбайт (11%)
Заголовок : Dub AC3 5.1 384 kbps 48kHz
Язык : Russian
Default : Да
Forced : Нет
Аудио #2
Идентификатор : 3
Формат : AC-3
Формат/Информация : Audio Coding 3
Расширение режима : CM (complete main)
Параметр Endianness формата : Big
Идентификатор кодека : A_AC3
Продолжительность : 2 ч. 33 м.
Вид битрейта : Постоянный
Битрейт : 448 Кбит/сек
Каналы : 6 каналов
Расположение каналов : Front: L C R, Side: L R, LFE
Частота : 48,0 КГц
Битовая глубина : 16 бит
Метод сжатия : С потерями
Размер потока : 491 Мбайт (13%)
Заголовок : MVO AC3 5.1 448 kbps 48kHz
Язык : Russian
Default : Нет
Forced : Нет
Аудио #3
Идентификатор : 4
Формат : AC-3
Формат/Информация : Audio Coding 3
Расширение режима : CM (complete main)
Параметр Endianness формата : Big
Идентификатор кодека : A_AC3
Продолжительность : 2 ч. 33 м.
Вид битрейта : Постоянный
Битрейт : 448 Кбит/сек
Каналы : 6 каналов
Расположение каналов : Front: L C R, Side: L R, LFE
Частота : 48,0 КГц
Битовая глубина : 16 бит
Метод сжатия : С потерями
Размер потока : 491 Мбайт (13%)
Заголовок : Original AC3 5.1 448 kbps 48kHz
Язык : English
Default : Нет
Forced : Нет
Текст #1
Идентификатор : 5
Формат : UTF-8
Идентификатор кодека : S_TEXT/UTF8
Идентификатор кодека/Информация : UTF-8 Plain Text
Заголовок : Rus (forced) for DUB
Язык : Russian
Default : Нет
Forced : Да
Текст #2
Идентификатор : 6
Формат : UTF-8
Идентификатор кодека : S_TEXT/UTF8
Идентификатор кодека/Информация : UTF-8 Plain Text
Заголовок : Rus (forced) for MVO
Язык : Russian
Default : Нет
Forced : Нет
Текст #3
Идентификатор : 7
Формат : UTF-8
Идентификатор кодека : S_TEXT/UTF8
Идентификатор кодека/Информация : UTF-8 Plain Text
Заголовок : Rus (full)
Язык : Russian
Default : Нет
Forced : Нет
Текст #4
Идентификатор : 8
Формат : UTF-8
Идентификатор кодека : S_TEXT/UTF8
Идентификатор кодека/Информация : UTF-8 Plain Text
Заголовок : Eng
Язык : English
Default : Нет
Forced : Нет
Меню
00:00:00.000 : en:Walk the Line
00:02:28.940 : en:J.R. and Jack
00:06:42.151 : en:The Wrong Son
00:10:59.075 : en:Leaving Home
00:13:15.336 : en:Germany
00:18:38.617 : en:The Salesman
00:22:30.015 : en:Can't You Hear the Difference?
00:26:32.257 : en:One Song
00:33:43.229 : en:A Thousand Copies
00:36:47.121 : en:Stuck on June
00:40:00.940 : en:Get Rhythm
00:42:27.878 : en:Backstage
00:46:11.894 : en:Alone with June
00:50:32.738 : en:New Rules
00:53:35.879 : en:All These Boys
00:56:05.570 : en:It Just Happened
00:58:02.103 : en:Elvis Takes 'Em
01:02:28.244 : en:Deeper and Deeper
01:05:37.767 : en:A World of Judgment
01:09:29.540 : en:The Wrong Song
01:14:09.319 : en:Going Home
01:17:26.350 : en:I Walk the Line
01:19:08.952 : en:Missing the Music
01:23:07.649 : en:Back on the Road
01:27:34.958 : en:It's Not Wrong
01:33:23.639 : en:Breakdown
01:39:03.395 : en:Busted
01:43:57.272 : en:The End of a Marriage
01:46:55.909 : en:Disconnected
01:49:20.762 : en:Where's My Friend John?
01:52:11.891 : en:The New House
01:55:24.918 : en:Thanksgiving
02:02:20.333 : en:The Way Back
02:04:34.008 : en:Second Chance
02:08:59.857 : en:Fan Letters
02:12:34.905 : en:A Concert for Convicts
02:16:53.830 : en:Not the Right Time
02:20:17.992 : en:The Right Time
02:26:35.995 : en:One Man's Family
02:27:39.600 : en:Epilogue
02:33:08.053 : en:

Скриншоты


Релиз от: Rip by
[Профиль] [ЛС]
Показать сообщения:    

Текущее время: Сегодня 14:53

Часовой пояс: GMT



Вы не можете начинать темы
Вы не можете отвечать на сообщения
Вы не можете редактировать свои сообщения
Вы не можете удалять свои сообщения
Вы не можете голосовать в опросах
Вы не можете прикреплять файлы к сообщениям
Вы не можете скачивать файлы