Пересечение 10-й и Вульф / 10th & Wolf (Роберт Мореско / Robert Moresco) [2006, США, триллер, драма, криминал, BDRip] MVO + Original (Eng) + Sub (Rus, Eng)

 
Автор Сообщение

painkiller ®

Стаж: 2 года 3 месяца

Сообщений: 582



Награды: Нет

Торрент-статистика

Создавать темы 14-Авг-2014 09:15

[Цитировать]

Пересечение 10-й и Вульф / 10th & Wolf
Год выпуска: 2006
Страна: США
Жанр: триллер, драма, криминал, детектив
Продолжительность: 01:43:46
Перевод: Профессиональный (многоголосый, закадровый) + Оригинальная (английская) дорожка (отдельно)
Субтитры: русские, английские - softsub (SRT)
Режиссер: Роберт Мореско / Robert Moresco
В ролях: Джеймс Марсден (Tommy), Джованни Рибизи (Joey), Брэд Ренфро (Vincent), Пайпер Перабо (Brandy), Деннис Хоппер (Matty Matello), Брайан Деннехи (Agent Horvath), Лесли Энн Уоррен (Tina), Лео Росси (Agent Thornton), Дэш Майок (Junior), Томми Ли (Jimmy Tattoo), Франческо Сальви (Luciano Reggio), Вэл Килмер (Murtha)-Бюджет: $8 000 000
Мировая премьера: 21 апреля 2006-Описание: Томми был еще ребенком, когда убили его отца, одного из главарей мафии Филадельфии. Его брат и кузен остаются верны «семейному делу», но сам Томми решает завязать со своим прошлым и идет служить в армию.
Когда из-за конфликта с командованием ему грозит военный трибунал, агенты ФБР в обмен на свободу предлагают ему вернуться в преступный бизнес и стать тайным осведомителем. Томми предстоит сделать самый трудный выбор: или пойти против закона, или предать брата и друга...
- Рейтинг
kinopoisk.ru: 6.565 (360)
imdb.com: 6.50 (5086)
MPAA: R - Лицам до 17 лет обязательно присутствие взрослого
-Качество: BDRip (Исходник: Blu-Ray Remux)
Формат: AVI //SAMPLE//
Видео: 720x304 (2.37:1), 25 fps, XviD build 65 ~1552 kbps avg, 0.28 bit/pixel
Аудио RUS: 48 kHz, AC3 Dolby Digital, 3/2 (L,C,R,l,r) + LFE ch, ~448 kbps - MVO
Аудио ENG: 48 kHz, AC3 Dolby Digital, 3/2 (L,C,R,l,r) + LFE ch, ~448 kbps - Original (отдельно)

MediaInfo

Общее
Полное имя : F:\Video\AVI\Films\Peresechenie.10.I.Vulf.2006.RUS.BDRip.XviD.AC3.-AllFilms\Peresechenie.10.I.Vulf.2006.RUS.BDRip.XviD.AC3.-AllFilms.avi
Формат : AVI
Формат/Информация : Audio Video Interleave
Размер файла : 1,46 Гбайт
Продолжительность : 1 ч. 43 м.
Общий поток : 2011 Кбит/сек
Название фильма : Пересечение 10-й и Вульф / 10th & Wolf (2006)
Режиссёр : Shevon (BDRemux)
Программа кодирования : VirtualDubMod 1.5.10.3 | www.virtualdub-fr.org || (build 2550/release)
Правообладатель : AllFilms (torrentfilm.net)
Видео
Идентификатор : 0
Формат : MPEG-4 Visual
Профиль формата : Advanced Simple@L5
Параметр BVOP формата : 1
Параметр QPel формата : Нет
Параметр GMC формата : Без точки перехода
Параметр матрицы формата : Выборочная
Идентификатор кодека : XVID
Идентификатор кодека/Подсказка : XviD
Продолжительность : 1 ч. 43 м.
Битрейт : 1553 Кбит/сек
Ширина : 720 пикселей
Высота : 304 пикселя
Соотношение сторон : 2,35:1
Частота кадров : 25,000 кадров/сек
Цветовое пространство : YUV
Субдискретизация насыщенности : 4:2:0
Битовая глубина : 8 бит
Тип развёртки : Прогрессивная
Метод сжатия : С потерями
Бит/(Пиксели*Кадры) : 0.284
Размер потока : 1,13 Гбайт (77%)
Библиотека кодирования : XviD 65
Аудио
Идентификатор : 1
Формат : AC-3
Формат/Информация : Audio Coding 3
Расширение режима : CM (complete main)
Параметр Endianness формата : Big
Идентификатор кодека : 2000
Продолжительность : 1 ч. 43 м.
Вид битрейта : Постоянный
Битрейт : 448 Кбит/сек
Каналы : 6 каналов
Расположение каналов : Front: L C R, Side: L R, LFE
Частота : 48,0 КГц
Битовая глубина : 16 бит
Метод сжатия : С потерями
Размер потока : 333 Мбайт (22%)
Выравнивание : Разделение по промежуткам
Продолжительность промежутка : 40 мс. (1,00 видеокадр)
Время предзагрузки промежутка : 500 мс.

Скриншоты


-
[Профиль] [ЛС]

Создавать темы 06-Авг-2015 23:15 (спустя 11 месяцев 23 дня)

Топик был перенесен из форума Фильмы до 2014 года в форум Фильмы до 2012 года
sergej644
 
Показать сообщения:    

Текущее время: Сегодня 00:22

Часовой пояс: GMT



Вы не можете начинать темы
Вы не можете отвечать на сообщения
Вы не можете редактировать свои сообщения
Вы не можете удалять свои сообщения
Вы не можете голосовать в опросах
Вы не можете прикреплять файлы к сообщениям
Вы не можете скачивать файлы