Переправа 2 / The Crossing 2 (2015) BDRip 1080p | iTunes

 
Автор Сообщение

достали все ®

Пол:

Стаж: 1 год 8 месяцев

Сообщений: 6600



Награды: 12 (Подробнее)

Mega Seeder 1 (Количество: 1) Top Releaser 3 (Количество: 1) Top Releaser 4 (Количество: 1)
Торрент-статистика

Создавать темы 24-Дек-2015 12:27

[Цитировать]

Информация о фильме
Название: Переправа 2
Оригинальное название: The Crossing 2
Страна: Китай, Япония, Корея Южная, США
Студия: Beijing Gallop Horse Film & TV Production
Жанр: драма, история
Год выпуска: 2015
Продолжительность: 02:05:48
Перевод: Профессиональный (дублированный) iTunes
Cубтитры: Eng, Chi
Оригинальная аудиодорожка: Китайский
Режиссер: Джон Ву / John Woo
В ролях: Такэси Канэсиро, Чжан Цзыи, Тун Давэй, Масами Нагасава, Фрэнк М. Эхерн, Шан Конг, Джек Као, Хитоми Куроки, Боуи Лам, Вэй Ли
Описание: Герои фильма уже поднялись на борт злополучного корабля «Тайпин». Как и остальные пассажиры лайнера, они оказались на краю смерти. Всё смешалось в бурном потоке волн: радость и печаль, любовь и ненависть, жизнь и смерть. Кто сможет спастись и вырваться из круговорота трагических событий? А кто навсегда останется погребённым в холодных водах Тайваньского пролива?

Тип релиза: BDRip 1080p
Контейнер: MKV
Видео: MPEG-4 AVC, 15.5 Mбит/с, 1920x800, 24.000 fps
Аудио: Rus, AC3, 384 kb/s (6 ch), 48 kHz
Аудио 2: Chi, DTS, 1510 kb/s (6 ch), 48 kHz
Формат субтитров: softsub (SRT)

MediaInfo

Format : Matroska
Format version : Version 4 / Version 2
File size : 15.3 GiB
Duration : 2h 5mn
Overall bit rate : 17.4 Mbps
Movie name : Переправа 2. (Tonik)
Encoded date : UTC 2015-12-24 10:22:53
Writing application : mkvmerge v7.1.0 ('Good Love') 64bit built on Jul 27 2014 13:06:55
Writing library : libebml v1.3.0 + libmatroska v1.4.1
_STATISTICS_WRITING_APP : mkvmerge v7.1.0 ('Good Love') 64bit built on Jul 27 2014 13:06:55
_STATISTICS_WRITING_DATE_UTC : 2015-12-24 10:22:53
_STATISTICS_TAGS : BPS DURATION NUMBER_OF_FRAMES NUMBER_OF_BYTES
DURATION : 02:02:00.343000000
NUMBER_OF_FRAMES : 1418
NUMBER_OF_BYTES : 32080
Video
ID : 1
Format : AVC
Format/Info : Advanced Video Codec
Format profile : High@L4.1
Format settings, CABAC : Yes
Format settings, ReFrames : 5 frames
Codec ID : V_MPEG4/ISO/AVC
Duration : 2h 5mn
Bit rate : 15.5 Mbps
Width : 1 920 pixels
Height : 800 pixels
Display aspect ratio : 2.40:1
Frame rate mode : Constant
Frame rate : 24.000 fps
Color space : YUV
Chroma subsampling : 4:2:0
Bit depth : 8 bits
Scan type : Progressive
Bits/(Pixel*Frame) : 0.420
Stream size : 13.3 GiB (87%)
Writing library : x264 core 142 r2431+42 c69a006 tMod [8-bit@all X86_64]
Encoding settings : cabac=1 / ref=5 / deblock=1:-3:-3 / analyse=0x3:0x133 / me=umh / subme=11 / psy=1 / fade_compensate=0.00 / psy_rd=1.05:0.10 / mixed_ref=1 / me_range=64 / chroma_me=1 / trellis=2 / 8x8dct=1 / cqm=0 / deadzone=21,11 / fast_pskip=0 / chroma_qp_offset=-3 / threads=12 / lookahead_threads=3 / sliced_threads=0 / nr=0 / decimate=0 / interlaced=0 / bluray_compat=0 / constrained_intra=0 / fgo=0 / bframes=10 / b_pyramid=2 / b_adapt=2 / b_bias=0 / direct=3 / weightb=1 / open_gop=0 / weightp=2 / keyint=250 / keyint_min=24 / scenecut=40 / intra_refresh=0 / rc_lookahead=150 / rc=2pass / mbtree=1 / bitrate=15500 / ratetol=1.0 / qcomp=0.70 / qpmin=0:0:0 / qpmax=69:69:69 / qpstep=4 / cplxblur=20.0 / qblur=0.5 / vbv_maxrate=50000 / vbv_bufsize=50000 / nal_hrd=none / filler=0 / ip_ratio=1.40 / aq=1:0.70 / aq-sensitivity=10.00 / aq-factor=1.00:1.00:1.00 / aq2=0 / aq3=0
Language : Chinese
Default : Yes
Forced : No
Color range : Limited
Matrix coefficients : BT.709
DURATION : 02:05:47.917000000
NUMBER_OF_FRAMES : 181150
NUMBER_OF_BYTES : 14609415545
_STATISTICS_WRITING_APP : mkvmerge v7.1.0 ('Good Love') 64bit built on Jul 27 2014 13:06:55
_STATISTICS_WRITING_DATE_UTC : 2015-12-24 10:22:53
_STATISTICS_TAGS : BPS DURATION NUMBER_OF_FRAMES NUMBER_OF_BYTES
Audio #1
ID : 2
Format : AC-3
Format/Info : Audio Coding 3
Mode extension : CM (complete main)
Format settings, Endianness : Big
Codec ID : A_AC3
Duration : 2h 5mn
Bit rate mode : Constant
Bit rate : 384 Kbps
Channel(s) : 6 channels
Channel positions : Front: L C R, Side: L R, LFE
Sampling rate : 48.0 KHz
Bit depth : 16 bits
Compression mode : Lossy
Stream size : 346 MiB (2%)
Title : iTunes
Language : Russian
Default : Yes
Forced : No
Audio #2
ID : 3
Format : DTS
Format/Info : Digital Theater Systems
Mode : 16
Format settings, Endianness : Big
Codec ID : A_DTS
Duration : 2h 5mn
Bit rate mode : Constant
Bit rate : 1 509 Kbps
Channel(s) : 6 channels
Channel positions : Front: L C R, Side: L R, LFE
Sampling rate : 48.0 KHz
Bit depth : 24 bits
Compression mode : Lossy
Stream size : 1.33 GiB (9%)
Language : Chinese
Default : No
Forced : No
Text #1
ID : 4
Format : UTF-8
Codec ID : S_TEXT/UTF8
Codec ID/Info : UTF-8 Plain Text
Language : English
Default : No
Forced : No
Text #2
ID : 5
Format : UTF-8
Codec ID : S_TEXT/UTF8
Codec ID/Info : UTF-8 Plain Text
Language : Chinese
Default : No
Forced : No
Menu
00:00:00.000 : en:
00:07:06.166 : en:
00:14:15.208 : en:
00:21:40.458 : en:
00:28:22.250 : en:
00:35:00.166 : en:
00:41:01.375 : en:
00:45:47.750 : en:
00:50:47.333 : en:
00:58:15.125 : en:
01:09:50.583 : en:
01:17:36.333 : en:
01:26:31.666 : en:
01:36:14.708 : en:
01:52:28.958 : en:

Скриншоты

[Профиль] [ЛС]
Кто просматривает тему:

Форум Тема Автор Размер
Отечественные мультфильмы Архангельские новеллы. Выпуск первый (Перепилиха, Апельсин) (Леонид Носырев) [1986, мультфильм, DVB] TorrentFilm 455 MB
Фильмы до 2012 года Бульварный переплет (2003) DVDRip от Кинорадиомагия sergej644 1.37 GB
Эпоха СССР И.В. Сталин, Л.М.Каганович (авторы), О. В. Хлевнюк, Р. У. Дэвис, Л. П. Кошелева, Э. А. Рис, Л. А. Рогова (составители) - Сталин и Каганович. Переписка. 1931 - 1936 гг [2001, DjVu] sergej644 17 MB
Разная литература Каммарери, Митчел, Баландин, Джонсон, Тимаев, Киппхан, Трубникова и др. - Переплетное дело и реставрация + несколько книг по полиграфии (брошюровка-переплет) Garik014 1.61 GB
Фильмы (HD Rips | 720p, 1080p) Любовный переплет / The Oranges (2011) BDRip 720p sergej644 4.84 GB
Фильмы (HD Rips | 720p, 1080p) Любовный переплет / The Oranges (Джулиан Фарино / Julian Farino) [2011, США, драма, мелодрама, комедия, BDRip 720p] Dub (CineLab SoundMix) + Sub Rus + Original Eng reversefile 3.97 GB
Видео для КПК и Смартфонов Максим Перепелица (1955) DVDRip от MediaClub | КПК sergej644 396 MB
Фильмы (HD Rips | 720p, 1080p) Мисс Переполох / She's Funny That Way (2014) BDRip 720p | iTunes Russian Mafia 4.62 GB
Показать сообщения:    

Текущее время: Сегодня 15:39

Часовой пояс: GMT



Вы не можете начинать темы
Вы не можете отвечать на сообщения
Вы не можете редактировать свои сообщения
Вы не можете удалять свои сообщения
Вы не можете голосовать в опросах
Вы не можете прикреплять файлы к сообщениям
Вы не можете скачивать файлы