Переполох в общаге 2: Семестр на море / Dorm Daze 2 (Дэвид Хилленбрэнд / David Hillenbrand, Скотт Хилленбрэнд / Scott Hillenbrand) [2006 г., США, комедия, BDRip] Dub + AVO (Гранкин)

 
Автор Сообщение

painkiller ®

Стаж: 2 года 3 месяца

Сообщений: 582



Награды: Нет

Торрент-статистика

Создавать темы 16-Авг-2014 14:45

[Цитировать]

-Первая часть-Переполох в общаге 2: Семестр на мореDorm Daze 2-«Вход на лекции только в бикини»- Год выпуска: 2006
Страна: США-Жанр: комедия
Продолжительность: 01:40:20
Перевод:
  • Профессиональный (полное дублирование)
  • Авторский (одноголосый, закадровый) (Гранкин)
Субтитры: нет-Режиссер: Дэвид Хилленбрэнд / David Hillenbrand, Скотт Хилленбрэнд / Scott Hillenbrand
Сценарий: Патрик Кэйси / Patrick Casey, Уорм Миллер / Worm Miller
Продюсер: Брайан Фарбер / Brian Farber, Санфорд Хэмптон / Sanford Hampton, Кристофер Дадди / Christopher Duddy, Гленн Гарлэнд / Glenn W. Garland, Альберт Миниачи / Albert Miniaci
Оператор: Роберт Коситчек / Robert Kositchek, Филип Д. Шварц / Philip D. Schwartz
Композитор: Дэвид Хилленбрэнд / David Hillenbrand-В ролях: Гейбл Карр (Rachel Hubber), Патрик Кэйси (Mike), Патрик Кавано (Pete Hanson), Джеймс ДеБелло (Cliff Richards), Марайа Делфино (Gerri Farber), Тони Денмен (Newmar), Ларри Дрэйк (Dean Dryer), Даниель Фишел (Marla), Вида Гуерра (Violet), Джереми Ховард (Eli), Пол Х. Ким (Wang), Дженнифер Лайонс (Lynne)-Описание: Сумасшедшие приключения студентов университета Биллингсли продолжаются! Следующая остановка - круизный лайнер Surveyor. Судно на время превращается в учебную аудиторию. «Семестр на море» должен начаться с остановки на тропическом острове Сан Парадизо, где ведутся интересные археологические раскопки. Капитан и команда лайнера надолго запомнят этих шумных пассажиров!-kinopoisk.ru: 4.955 (1280)
imdb.com: 4.00 (3887)
MPAA: R - Лицам до 17 лет обязательно присутствие взрослого-
Исходный диск приобретен в рамках сервиса клуба "Копилка: Помоги с Blu-ray". Благодарим: irrlicht, gelom, tambov68
-Качество: BDRip / Dorm.Daze.2.2006.1080p.Bluray.GER.Unrated.AVC.Remux.HDCLUB
Контейнер: AVI
Видео: 720x400 (1.80:1), 24.000 fps, XviD build 65 ~1698 kbps avg, 0.25 bit/pixel
Аудио I: 48 kHz, AC3 Dolby Digital, 3/2 (L,C,R,l,r) + LFE ch, ~384 kbps (Dub)
Аудио II: 48 kHz, AC3 Dolby Digital, 2/0 (L,R) ch, ~192 kbps (AVO) (отдельно)--

MediaInfo

General
Complete name                            : E:\Рипы\Dorm.Daze.2.2006.BDRip.All.Films\Dorm.Daze.2.2006.BDRip.All.Films.avi
Format                                   : AVI
Format/Info                              : Audio Video Interleave
File size                                : 1.46 GiB
Duration                                 : 1h 40mn
Overall bit rate                         : 2 076 Kbps
Movie name                               : Dorm.Daze.2.2006.BDRip.All.Films
Director                                 : DIABLO93
Genre                                    : Comedy
Writing application                      : VirtualDubMod 1.5.10.3 | www.virtualdub-fr.org || (build 2550/release)
Original source form/Name                : Movie
Copyright                                : Rutracker.org (R.G. All Films)
Video
ID                                       : 0
Format                                   : MPEG-4 Visual
Format profile                           : Advanced Simple@L5
Format settings, BVOP                    : 2
Format settings, QPel                    : No
Format settings, GMC                     : No warppoints
Format settings, Matrix                  : Custom
Codec ID                                 : XVID
Codec ID/Hint                            : XviD
Duration                                 : 1h 40mn
Bit rate                                 : 1 698 Kbps
Width                                    : 720 pixels
Height                                   : 400 pixels
Display aspect ratio                     : 16:9
Frame rate                               : 24.000 fps
Color space                              : YUV
Chroma subsampling                       : 4:2:0
Bit depth                                : 8 bits
Scan type                                : Progressive
Compression mode                         : Lossy
Bits/(Pixel*Frame)                       : 0.246
Stream size                              : 1.19 GiB (82%)
Writing library                          : XviD 65
Audio
ID                                       : 1
Format                                   : AC-3
Format/Info                              : Audio Coding 3
Mode extension                           : CM (complete main)
Format settings, Endianness              : Big
Codec ID                                 : 2000
Duration                                 : 1h 36mn
Bit rate mode                            : Constant
Bit rate                                 : 384 Kbps
Channel(s)                               : 6 channels
Channel positions                        : Front: L C R, Side: L R, LFE
Sampling rate                            : 48.0 KHz
Bit depth                                : 16 bits
Compression mode                         : Lossy
Stream size                              : 265 MiB (18%)
Alignment                                : Split accross interleaves
Interleave, duration                     : 43 ms (1.04 video frame)
Interleave, preload duration             : 500 ms

-

Скриншоты

-
[Профиль] [ЛС]

Создавать темы 06-Авг-2015 23:09 (спустя 11 месяцев 21 день)

Топик был перенесен из форума Фильмы до 2014 года в форум Фильмы до 2012 года
sergej644
 
Кто просматривает тему:

Форум Тема Автор Размер
Отечественные мультфильмы Архангельские новеллы. Выпуск первый (Перепилиха, Апельсин) (Леонид Носырев) [1986, мультфильм, DVB] TorrentFilm 455 MB
Фильмы до 2012 года Бульварный переплет (2003) DVDRip от Кинорадиомагия sergej644 1.37 GB
Эпоха СССР И.В. Сталин, Л.М.Каганович (авторы), О. В. Хлевнюк, Р. У. Дэвис, Л. П. Кошелева, Э. А. Рис, Л. А. Рогова (составители) - Сталин и Каганович. Переписка. 1931 - 1936 гг [2001, DjVu] sergej644 17 MB
Разная литература Каммарери, Митчел, Баландин, Джонсон, Тимаев, Киппхан, Трубникова и др. - Переплетное дело и реставрация + несколько книг по полиграфии (брошюровка-переплет) Garik014 1.61 GB
Фильмы (HD Rips | 720p, 1080p) Любовный переплет / The Oranges (2011) BDRip 720p sergej644 4.84 GB
Фильмы (HD Rips | 720p, 1080p) Любовный переплет / The Oranges (Джулиан Фарино / Julian Farino) [2011, США, драма, мелодрама, комедия, BDRip 720p] Dub (CineLab SoundMix) + Sub Rus + Original Eng reversefile 3.97 GB
Видео для КПК и Смартфонов Максим Перепелица (1955) DVDRip от MediaClub | КПК sergej644 396 MB
Фильмы (HD Rips | 720p, 1080p) Мисс Переполох / She's Funny That Way (2014) BDRip 720p | iTunes Russian Mafia 4.62 GB
Показать сообщения:    

Текущее время: Сегодня 09:05

Часовой пояс: GMT



Вы не можете начинать темы
Вы не можете отвечать на сообщения
Вы не можете редактировать свои сообщения
Вы не можете удалять свои сообщения
Вы не можете голосовать в опросах
Вы не можете прикреплять файлы к сообщениям
Вы не можете скачивать файлы