Перевозчик / Transporter: The Series / Сезон: 2 / Серии: 1-12 (12) (Эрик Валетт, Стефан Плещински, Эрик Кануэль, П.Дж. Пеше) [2014, боевик, экшн, драма, криминал, HDTV 1080i, WEB-DL 1080p] 2xMVO (LostFilm, BaibaKo) + Original

 
Автор Сообщение

Russian Mafia ®

Пол:

Стаж: 1 год 8 месяцев

Сообщений: 4256



Награды: 10 (Подробнее)

Mega Seeder 1 (Количество: 1) Mega Seeder 5 (Количество: 1) Top Releaser 4 (Количество: 1)
Торрент-статистика

Создавать темы 21-Мар-2016 11:34

[Цитировать]

Перевозчик / Transporter: The Series- Страна: Канада, Франция, США, Германия
Жанр: боевик, экшн, драма, криминал
Продолжительность: ~50 минут
Год выпуска: 2014
Перевод: Профессиональный (многоголосый закадровый)
Русские субтитры: нет-Режиссёр: Эрик Валетт, Стефан Плещински, Эрик Кануэль, П.Дж. Пеше
В ролях: Крис Вэнс, Чарли Хюбнер, Франсуа Берлеан, Виоланте Плачидо, Даффер Лабидин, Марк Рендалл и другие.-Описание: Перевозчик — экшн-телесериал по мотивам одноимённой серии фильмов Люка Бессона. В центре сюжета бывший сотрудник Сил специального назначения Фрэнк Мартин, ныне перевозчик разных грузов. Он не задаёт лишних вопросов и всегда соблюдает чёткие правила: "Никогда не изменяй условия сделки", "Никаких имён", "Никогда не открывать груз". Его точность вождения и боевые навыки позволяют ему выжить в самых опасных ситуациях на протяжении всей миссии.--Качество: HDTV 1080i, WEB-DL 1080p
Формат: MKV
Видео кодек: MPEG-2, AVC
Аудио кодек: AC3
Видео:
* MPEG-2, 1920x1080, 29.970 fps, ~13000 kbps, 0.191 bit/pixel (1-6 серии)
* AVC, 1920x1080, 23,976 fps, ~5000 kbps (7-12 серии)
Аудио Rus: AC3, 48Chz, 2 ch, 384 kbps (LostFilm)
Аудио Rus: AC3, 48Chz, 6 ch, 384 kbps (BaibaKo)
Аудио Eng: AC3, 48Chz, 6 ch, 384 kbps
Субтитры: отсутствуют

MediaInfo

General
Unique ID : 183699327859156616828064598778153170777 (0x8A33342103F4A1DCA5FFED92852E7759)
Complete name : C:\Transporter (Season 2) HDTV1080i\01. 2B or Not 2B.mkv
Format : Matroska
Format version : Version 4 / Version 2
File size : 4.75 GiB
Duration : 51mn 14s
Overall bit rate mode : Variable
Overall bit rate : 13.3 Mbps
Encoded date : UTC 2014-12-18 17:13:14
Writing application : mkvmerge v7.4.0 ('Circles') 64bit built on Dec 12 2014 12:19:56
Writing library : libebml v1.3.0 + libmatroska v1.4.1
Cover : Yes
DURATION : 00:51:14.912000000
NUMBER_OF_FRAMES : 96091
NUMBER_OF_BYTES : 147595776
_STATISTICS_WRITING_APP : mkvmerge v7.4.0 ('Circles') 64bit built on Dec 12 2014 12:19:56
_STATISTICS_WRITING_DATE_UTC : 2014-12-18 17:13:14
_STATISTICS_TAGS : BPS DURATION NUMBER_OF_FRAMES NUMBER_OF_BYTES
Video
ID : 1
Format : MPEG Video
Format version : Version 2
Format profile : Main@High
Format settings, BVOP : No
Format settings, Matrix : Custom
Codec ID : V_MPEG2
Codec ID/Info : MPEG 1 or 2 Video
Duration : 51mn 14s
Bit rate mode : Variable
Bit rate : 11.9 Mbps
Maximum bit rate : 24.0 Mbps
Width : 1 920 pixels
Height : 1 080 pixels
Display aspect ratio : 16:9
Frame rate mode : Constant
Frame rate : 29.970 fps
Color space : YUV
Chroma subsampling : 4:2:0
Bit depth : 8 bits
Scan type : Interlaced
Scan order : Top Field First
Compression mode : Lossy
Bits/(Pixel*Frame) : 0.191
Time code of first frame : 00:00:00;00
Time code source : Group of pictures header
Stream size : 4.24 GiB (89%)
Language : English
Default : Yes
Forced : No
Audio #1
ID : 2
Format : AC-3
Format/Info : Audio Coding 3
Mode extension : CM (complete main)
Format settings, Endianness : Big
Codec ID : A_AC3
Duration : 51mn 14s
Bit rate mode : Constant
Bit rate : 384 Kbps
Channel(s) : 2 channels
Channel positions : Front: L R
Sampling rate : 48.0 KHz
Bit depth : 16 bits
Compression mode : Lossy
Stream size : 141 MiB (3%)
Title : LostFilm
Language : Russian
Default : Yes
Forced : No
Audio #2
ID : 3
Format : AC-3
Format/Info : Audio Coding 3
Mode extension : CM (complete main)
Format settings, Endianness : Big
Codec ID : A_AC3
Duration : 51mn 14s
Bit rate mode : Constant
Bit rate : 384 Kbps
Channel(s) : 6 channels
Channel positions : Front: L C R, Side: L R, LFE
Sampling rate : 48.0 KHz
Bit depth : 16 bits
Compression mode : Lossy
Stream size : 141 MiB (3%)
Title : BaibaKo
Language : Russian
Default : No
Forced : No
Audio #3
ID : 4
Format : AC-3
Format/Info : Audio Coding 3
Mode extension : CM (complete main)
Format settings, Endianness : Big
Codec ID : A_AC3
Duration : 51mn 14s
Bit rate mode : Constant
Bit rate : 384 Kbps
Channel(s) : 6 channels
Channel positions : Front: L C R, Side: L R, LFE
Sampling rate : 48.0 KHz
Bit depth : 16 bits
Compression mode : Lossy
Delay relative to video : 28ms
Stream size : 141 MiB (3%)
Language : English
Default : No
Forced : No

Скриншоты

Список серий

01. Быть или не быть (2B or Not 2B)
02. Мы вернёмся (We Go Back)
03. Секс, ложь и видео (Sex, Lies and Videotape)
04. Взрывы (Boom)
05. Луч надежды (Beacon of Hope)
06. Дива (The Diva)
07. Перевозчик-2 (T2)
08. Химера (Chimera)
09. Ефро (Euphro)
10. Доверие (Trust)
11. Шестнадцать хэндов (Sixteen Hands)
12. Конец игры (End Game)

Внимание! Раздача ведётся путём добавления новых серий

Внимание! Раздача ведётся путём добавления новых серий; при каждом добавлении создаётся новый торрент. Чтобы начать докачку новой серии, пользователям необходимо сделать следующее:
(1) остановить скачивание,
(2) удалить старый торрент у себя из клиента (старые серии удалять не надо),
(3) скачать новый торрент и запустить его у себя в клиенте вместо старого, при этом указать клиенту путь в старую папку куда и должно происходить скачивание новых серий.
Ваш клиент при этом должен произвести хеширование (проверку) старой папки (если не производит сам - помогите ему сделать это), и будет докачивать только те серии, которых у вас ещё нет. Старые серии при этом не удаляются, а продолжают раздаваться!
Если вы уже удалили старые серии, то предотвратить повторную закачку старых серий можно, отжав галочку в соответствующих местах при запуске нового торрента. По возможности, желательно не удалять старые серии как можно дольше, чтобы релизёр не столько продолжал раздавать старые серии, а смог сконцентрироваться на новых.
[Профиль] [ЛС]
Кто просматривает тему:

Форум Тема Автор Размер
Документальные HD BBC: Искусство перевоплощения - метаморфоз / Metamorphosis. The Science of Change [H264/720p - LQ] (2013) HDTVRip sergej644 1.2 GB
Словари и переводчики PROMT Expert 10 Build v9.0.526 Portable / Переводчик (RUS<->ENG) [2014,Rus] sergej644 330 MB
Apple Mac OS X (ОС и ПО) TextGrabber + Translator: OCR распознавание, сканер и переводчик текста [4.3.2, Производительность, iOS 7.0, RUS] reversefile 41 MB
Программы [Справочник] [Справочник] Vse-Taxi - каталог перевозчиков России v1.1.4, [Android 4.0+, RUS] [Android 4.0, RUS] TorrentFilm 4 MB
Фильмы (HD Rips | 720p, 1080p) Антибумер (2004) BDRip 720p | Смешной перевод BOSS 3.62 GB
Фильмы 2015 года Белая бестия (цензурная версия) / Beauty and the Beast (2015) BDRip | Смешной перевод BOSS 1.12 GB
Фильмы (HD Rips | 720p, 1080p) Властелин колец: Братва и кольцо / The Lord of the Rings: The Fellowship of the Ring (2002) BDRip 1080p | Смешной перевод BOSS 12.69 GB
Фильмы (HD Rips | 720p, 1080p) Властелин колец: Две сорванные башни / The Lord of the Rings: The Two Towers (2003) BDRip 1080p | Смешной перевод Russian Mafia 12.7 GB
Показать сообщения:    

Текущее время: Сегодня 14:42

Часовой пояс: GMT



Вы не можете начинать темы
Вы не можете отвечать на сообщения
Вы не можете редактировать свои сообщения
Вы не можете удалять свои сообщения
Вы не можете голосовать в опросах
Вы не можете прикреплять файлы к сообщениям
Вы не можете скачивать файлы