Перевозчик / Transporter: The Series / Сезон: 1 / Серии: 1-12 (12) (Брэд Тернер, Эрик Валетт, Энди Микита, Стефан Плещински) [2012, боевик, экшн, драма, криминал, BDRip 1080p] 2xMVO (LostFilm, BaibaKo) + Original

 
Автор Сообщение

Russian Mafia ®

Пол:

Стаж: 1 год 8 месяцев

Сообщений: 4257



Награды: 10 (Подробнее)

Top Releaser 4 (Количество: 1) Mega Seeder 2 (Количество: 1) Top Releaser 5 (Количество: 1)
Торрент-статистика

Создавать темы 21-Мар-2016 11:35

[Цитировать]

Перевозчик / Transporter: The Series- Страна: Канада, Франция, США, Германия
Жанр: боевик, экшн, драма, криминал
Продолжительность: ~50 минут
Год выпуска: 2012
Перевод: Профессиональный (многоголосый закадровый)
Русские субтитры: нет-Режиссёр: Брэд Тернер, Эрик Валетт, Энди Микита, Стефан Плещински, Брюс МакДональд, Эрик Кануэль, П.Дж. Пеше
В ролях: Крис Вэнс, Чарли Хюбнер, Франсуа Берлеан, Андреа Ошварт, Дэльфин Шанеак, Виоланте Плачидо, Курт Келли, Джулиан Ричингс, Даффер Лабидин, Марк Рендалл и другие.-Описание: Перевозчик — экшн-телесериал по мотивам одноимённой серии фильмов Люка Бессона. В центре сюжета бывший сотрудник Сил специального назначения Фрэнк Мартин, ныне перевозчик разных грузов. Он не задаёт лишних вопросов и всегда соблюдает чёткие правила: "Никогда не изменяй условия сделки", "Никаких имён", "Никогда не открывать груз". Его точность вождения и боевые навыки позволяют ему выжить в самых опасных ситуациях на протяжении всей миссии.--Качество: BDRip 1080p
Формат: MKV
Видео кодек: AVC
Аудио кодек: AC3, DTS
Видео: AVC, 1920x1080, 25,000 fps, ~9000 kbps
Аудио Rus: AC3, 48Chz, 2 ch, 384 kbps (LostFilm)
Аудио Rus: AC3, 48Chz, 6 ch, 384 kbps (BaibaKo)
Аудио Eng: DTS, 48Chz, 6 ch, 1509 kbps
Субтитры: отсутствуют

MediaInfo

General
Unique ID : 181186593910400583136039819760656890765 (0x884F44C7C6F1D4099E5007E9EC7EBB8D)
Complete name : C:\Transporter (Season 1) BDRip 1080p\01. Trojan Horsepower.mkv
Format : Matroska
Format version : Version 4 / Version 2
File size : 3.03 GiB
Duration : 45mn 6s
Overall bit rate : 9 629 Kbps
Encoded date : UTC 2015-02-14 23:48:56
Writing application : mkvmerge v7.4.0 ('Circles') 64bit built on Dec 12 2014 12:19:56
Writing library : libebml v1.3.0 + libmatroska v1.4.1
Cover : Yes
DURATION : 00:45:06.464000000
NUMBER_OF_FRAMES : 84577
NUMBER_OF_BYTES : 129910272
_STATISTICS_WRITING_APP : mkvmerge v7.4.0 ('Circles') 64bit built on Dec 12 2014 12:19:56
_STATISTICS_WRITING_DATE_UTC : 2015-02-14 23:48:56
_STATISTICS_TAGS : BPS DURATION NUMBER_OF_FRAMES NUMBER_OF_BYTES
Video
ID : 1
Format : AVC
Format/Info : Advanced Video Codec
Format profile : High@L4.1
Format settings, CABAC : Yes
Format settings, ReFrames : 4 frames
Codec ID : V_MPEG4/ISO/AVC
Duration : 45mn 6s
Bit rate : 7 161 Kbps
Width : 1 920 pixels
Height : 1 080 pixels
Display aspect ratio : 16:9
Frame rate mode : Constant
Frame rate : 25.000 fps
Color space : YUV
Chroma subsampling : 4:2:0
Bit depth : 8 bits
Scan type : Progressive
Bits/(Pixel*Frame) : 0.138
Stream size : 2.26 GiB (74%)
Writing library : x264 core 129 r2230 1cffe9f
Encoding settings : cabac=1 / ref=4 / deblock=1:-3:-3 / analyse=0x3:0x133 / me=umh / subme=7 / psy=1 / psy_rd=1.00:0.00 / mixed_ref=1 / me_range=16 / chroma_me=1 / trellis=1 / 8x8dct=1 / cqm=0 / deadzone=21,11 / fast_pskip=0 / chroma_qp_offset=-1 / threads=12 / lookahead_threads=2 / sliced_threads=0 / nr=0 / decimate=1 / interlaced=0 / bluray_compat=0 / constrained_intra=0 / bframes=3 / b_pyramid=2 / b_adapt=1 / b_bias=0 / direct=3 / weightb=1 / open_gop=0 / weightp=2 / keyint=250 / keyint_min=25 / scenecut=40 / intra_refresh=0 / rc_lookahead=40 / rc=crf / mbtree=1 / crf=20.0 / qcomp=0.60 / qpmin=10 / qpmax=51 / qpstep=4 / ip_ratio=1.40 / aq=1:1.00
Language : English
Default : Yes
Forced : No
DURATION : 00:45:06.960000000
NUMBER_OF_FRAMES : 67674
NUMBER_OF_BYTES : 2486588434
_STATISTICS_WRITING_APP : mkvmerge v7.4.0 ('Circles') 64bit built on Dec 12 2014 12:19:56
_STATISTICS_WRITING_DATE_UTC : 2015-02-14 23:48:56
_STATISTICS_TAGS : BPS DURATION NUMBER_OF_FRAMES NUMBER_OF_BYTES
Audio #1
ID : 2
Format : AC-3
Format/Info : Audio Coding 3
Mode extension : CM (complete main)
Format settings, Endianness : Big
Codec ID : A_AC3
Duration : 45mn 6s
Bit rate mode : Constant
Bit rate : 384 Kbps
Channel(s) : 2 channels
Channel positions : Front: L R
Sampling rate : 48.0 KHz
Bit depth : 16 bits
Compression mode : Lossy
Stream size : 124 MiB (4%)
Title : LostFilm
Language : Russian
Default : Yes
Forced : No
Audio #2
ID : 3
Format : AC-3
Format/Info : Audio Coding 3
Mode extension : CM (complete main)
Format settings, Endianness : Big
Codec ID : A_AC3
Duration : 45mn 6s
Bit rate mode : Constant
Bit rate : 384 Kbps
Channel(s) : 6 channels
Channel positions : Front: L C R, Side: L R, LFE
Sampling rate : 48.0 KHz
Bit depth : 16 bits
Compression mode : Lossy
Stream size : 124 MiB (4%)
Title : BaibaKo
Language : Russian
Default : No
Forced : No
Audio #3
ID : 4
Format : DTS
Format/Info : Digital Theater Systems
Mode : 16
Format settings, Endianness : Big
Codec ID : A_DTS
Duration : 45mn 6s
Bit rate mode : Constant
Bit rate : 1 509 Kbps
Channel(s) : 6 channels
Channel positions : Front: L C R, Side: L R, LFE
Sampling rate : 48.0 KHz
Bit depth : 24 bits
Compression mode : Lossy
Stream size : 487 MiB (16%)
Language : English
Default : No
Forced : No

Скриншоты



Список серий

01. Троянская лошадиная сила (Trojan Horsepower)
02. Расплата (Payback)
03. Дочь генерала (The General's Daughter)
04. Что посеешь... (Harvest)
05. Тайник (Dead Drop)
06. Горячий лёд (Hot Ice)
07. Рука помощи (Give the Guy a Hand)
08. Акулы (Sharks)
09. Город любви (City of Love)
10. Подмена (Switch)
11. 12 часов (12 Hours)
12. Шерше ля фам (Cherchez La Femme)
Хронология из английской Википедии!

Внимание! Раздача ведётся путём добавления новых серий

Внимание! Раздача ведётся путём добавления новых серий; при каждом добавлении создаётся новый торрент. Чтобы начать докачку новой серии, пользователям необходимо сделать следующее:
(1) остановить скачивание,
(2) удалить старый торрент у себя из клиента (старые серии удалять не надо),
(3) скачать новый торрент и запустить его у себя в клиенте вместо старого, при этом указать клиенту путь в старую папку куда и должно происходить скачивание новых серий.
Ваш клиент при этом должен произвести хеширование (проверку) старой папки (если не производит сам - помогите ему сделать это), и будет докачивать только те серии, которых у вас ещё нет. Старые серии при этом не удаляются, а продолжают раздаваться!
Если вы уже удалили старые серии, то предотвратить повторную закачку старых серий можно, отжав галочку в соответствующих местах при запуске нового торрента. По возможности, желательно не удалять старые серии как можно дольше, чтобы релизёр не столько продолжал раздавать старые серии, а смог сконцентрироваться на новых.
[Профиль] [ЛС]
Кто просматривает тему:

Форум Тема Автор Размер
Документальные HD BBC: Искусство перевоплощения - метаморфоз / Metamorphosis. The Science of Change [H264/720p - LQ] (2013) HDTVRip sergej644 1.2 GB
Словари и переводчики PROMT Expert 10 Build v9.0.526 Portable / Переводчик (RUS<->ENG) [2014,Rus] sergej644 330 MB
Apple Mac OS X (ОС и ПО) TextGrabber + Translator: OCR распознавание, сканер и переводчик текста [4.3.2, Производительность, iOS 7.0, RUS] reversefile 41 MB
Программы [Справочник] [Справочник] Vse-Taxi - каталог перевозчиков России v1.1.4, [Android 4.0+, RUS] [Android 4.0, RUS] TorrentFilm 4 MB
Фильмы (HD Rips | 720p, 1080p) Антибумер (2004) BDRip 720p | Смешной перевод BOSS 3.62 GB
Фильмы 2015 года Белая бестия (цензурная версия) / Beauty and the Beast (2015) BDRip | Смешной перевод BOSS 1.12 GB
Фильмы (HD Rips | 720p, 1080p) Властелин колец: Братва и кольцо / The Lord of the Rings: The Fellowship of the Ring (2002) BDRip 1080p | Смешной перевод BOSS 12.69 GB
Фильмы (HD Rips | 720p, 1080p) Властелин колец: Две сорванные башни / The Lord of the Rings: The Two Towers (2003) BDRip 1080p | Смешной перевод Russian Mafia 12.7 GB
Показать сообщения:    

Текущее время: Сегодня 09:59

Часовой пояс: GMT



Вы не можете начинать темы
Вы не можете отвечать на сообщения
Вы не можете редактировать свои сообщения
Вы не можете удалять свои сообщения
Вы не можете голосовать в опросах
Вы не можете прикреплять файлы к сообщениям
Вы не можете скачивать файлы