Перевозчик 2 / Transporter 2 (Луи Летерье / Louis Leterrier) [2005 г., США, Франция. Боевик, триллер. BDRemux 1080p] [Без цензурная версия / UnCut Version]

 
Автор Сообщение

Russian Mafia ®

Пол:

Стаж: 1 год 8 месяцев

Сообщений: 4252



Награды: 10 (Подробнее)

Top Releaser 3 (Количество: 1) Mega Seeder 3 (Количество: 1) Mega Seeder 4 (Количество: 1)
Торрент-статистика

Создавать темы 21-Мар-2016 11:44

[Цитировать]

Перевозчик 2 [Без цензурная версия] / Transporter 2 [UnCut Version]- Страна: США, Франция
Жанр: Боевик, триллер
Год выпуска: 2005
Продолжительность: 01:28:07-Перевод 1: Профессиональный (дубляж)
Перевод 2: Профессиональный двухголосый (П.Гланц и И.Королёва)
Перевод 3: Профессиональный многоголосый (Киномания)
Перевод 4: Профессиональный одноголосый (А.Гаврилов)
Русские субтитры: есть
Формат субтитров: srt
Оригинальная аудиодорожка: Английская-Режиссёр: Луи Летерье / Louis Leterrier-В ролях: Джейсон Стэтхэм, Алессандро Гассман, Эмбер Валлетта, Кейт Наута, Мэтью Модайн, Джейсон Флеминг, Кит Дэвид, Хантер Клэри, Шеннон Бриггс, Франсуа Берлеан-Описание: Бывший сотрудник спецподразделения Фрэнк Мартин, известный также как Перевозчик, уходит от дел и поселяется в Майами, где устраивается шофером в богатую семью. С маленьким сыном этого семейства у него завязываются дружеские отношения.
Когда же мальчика похищают, Мартину приходится использовать свои профессиональные навыки, чтобы вернуть парнишку в целости и сохранности, а также раскрыть зловещий план похитителя…-Доп. инфо: Отличия от театральной версии, можно посмотреть тут
Кому нужен только дубляж - качайте (битый уже)-Тип релиза: BDRemux
Контейнер: MKV
Видео: MPEG-4 AVC / 16900 kbps / 1080p / 24,000 fps / 16:9 / High Profile 4.1
Аудио 1: Русский дубляж / DTS / 5.1 / 48 kHz / 768 kbps
Аудио 2: Русский двухголосый П.Гланц и И.Королёва / DTS / 5.1 / 48 kHz / 1536 kbps
Аудио 3: Русский многоголосый Киномания / Dolby Digital / 5.1 / 48 kHz / 384 kbps
Аудио 4: Русский одноголосый А.Гаврилов / DTS / 5.1 / 48 kHz / 768 kbps
Аудио 5: Английский DTS-HD HR / 5.1 / 2046 kbps / 48 kHz / 16-bit (DTS Core: 5.1 / 48 kHz / 1509 kbps / 16-bit)
Cубтитры 1: Русские
Cубтитры 2: Английские
Чаптеры: 12 шт.-

Скриншоты


-

MediaInfo

Полное имя                       : Transporter.2.Uncut.2005.Blu-ray.1080p.AVC.4xRus.Eng.mkv
Формат                           : Matroska
Размер файла                     : 13,8 Гбайт
Продолжительность                : 1 ч. 28 м.
Общий поток                      : 22,4 Мбит/сек
Название фильма                  : HANSMER
Дата кодирования                 : UTC 2011-02-06 17:31:51
Программа кодирования            : mkvmerge v4.5.0 ('Speed of Light') сборка от Feb  1 2011 02:10:32
Библиотека кодирования           : libebml v1.2.0 + libmatroska v1.1.0
[br]
Видео
Идентификатор                    : 1
Формат                           : AVC
Формат/Информация                : Advanced Video Codec
Профиль формата                  : High@L4.1
Параметр CABAC формата           : Да
Параметр ReFrames формата        : 4 кадры
Режим смешивания                 : Container profile=Unknown@0.0
Идентификатор кодека             : V_MPEG4/ISO/AVC
Продолжительность                : 1 ч. 28 м.
Вид битрейта                     : Переменный
Битрейт                          : 16,5 Мбит/сек
Максимальный битрейт             : 29,9 Мбит/сек
Ширина                           : 1920 пикс.
Высота                           : 1080 пикс.
Соотношение сторон               : 16:9
Частота кадров                   : 24,000 кадр/сек
Стандарт вещания                 : PAL
Цветовое пространство            : YUV
Подвыборка цветности             : 4:2:0
Битовая глубина                  : 8 бит
Тип развёртки                    : Прогрессивная
Бит/(Пиксели*Кадры)              : 0.331
Размер потока                    : 10,1 Гбайт (74%)
Заголовок                        : 16900 kbps
Язык                             : English
Основные цвета                   : BT.709-5, BT.1361, IEC 61966-2-4, SMPTE RP177
Характеристики трансфера         : BT.709-5, BT.1361
Коэффициенты матрицы             : BT.709-5, BT.1361, IEC 61966-2-4 709, SMPTE RP177
[br]
Аудио #1
Идентификатор                    : 2
Формат                           : DTS
Формат/Информация                : Digital Theater Systems
Идентификатор кодека             : A_DTS
Продолжительность                : 1 ч. 28 м.
Вид битрейта                     : Постоянный
Битрейт                          : 755 Кбит/сек
Канал(ы)                         : 6 канала(ов)
Расположение каналов             : Front: L C R, Side: L R, LFE
Частота                          : 48,0 КГц
Битовая глубина                  : 24 бит
Метод сжатия                     : С потерями
Размер потока                    : 476 Мбайт (3%)
Заголовок                        : Dub
Язык                             : Russian
[br]
Аудио #2
Идентификатор                    : 3
Формат                           : DTS
Формат/Информация                : Digital Theater Systems
Идентификатор кодека             : A_DTS
Продолжительность                : 1 ч. 28 м.
Вид битрейта                     : Постоянный
Битрейт                          : 1510 Кбит/сек
Канал(ы)                         : 6 канала(ов)
Расположение каналов             : Front: L C R, Side: L R, LFE
Частота                          : 48,0 КГц
Битовая глубина                  : 24 бит
Метод сжатия                     : С потерями
Размер потока                    : 952 Мбайт (7%)
Заголовок                        : Glanz & Koroleva
Язык                             : Russian
[br]
Аудио #3
Идентификатор                    : 4
Формат                           : AC-3
Формат/Информация                : Audio Coding 3
Расширение режима                : CM (complete main)
Идентификатор кодека             : A_AC3
Продолжительность                : 1 ч. 28 м.
Вид битрейта                     : Постоянный
Битрейт                          : 384 Кбит/сек
Канал(ы)                         : 6 канала(ов)
Расположение каналов             : Front: L C R, Side: L R, LFE
Частота                          : 48,0 КГц
Битовая глубина                  : 16 бит
Метод сжатия                     : С потерями
Размер потока                    : 242 Мбайт (2%)
Заголовок                        : Kinomanija
Язык                             : Russian
[br]
Аудио #4
Идентификатор                    : 5
Формат                           : DTS
Формат/Информация                : Digital Theater Systems
Идентификатор кодека             : A_DTS
Продолжительность                : 1 ч. 28 м.
Вид битрейта                     : Постоянный
Битрейт                          : 755 Кбит/сек
Канал(ы)                         : 6 канала(ов)
Расположение каналов             : Front: L C R, Side: L R, LFE
Частота                          : 48,0 КГц
Битовая глубина                  : 24 бит
Метод сжатия                     : С потерями
Размер потока                    : 476 Мбайт (3%)
Заголовок                        : Gavrilov
Язык                             : Russian
[br]
Аудио #5
Идентификатор                    : 6
Формат                           : DTS
Формат/Информация                : Digital Theater Systems
Профиль формата                  : HRA / Core
Идентификатор кодека             : A_DTS
Продолжительность                : 1 ч. 28 м.
Вид битрейта                     : Постоянный
Битрейт                          : 2047 Кбит/сек / 1510 Кбит/сек
Канал(ы)                         : 6 канала(ов)
Расположение каналов             : Front: L C R, Side: L R, LFE
Частота                          : 48,0 КГц
Битовая глубина                  : 16 бит / 24 бит
Метод сжатия                     : С потерями
Размер потока                    : 1,26 Гбайт (9%)
Заголовок                        : DTS-HD HR 5.1 @ 2046 kbps
Язык                             : English
[br]
Текст #1
Идентификатор                    : 7
Формат                           : UTF-8
Идентификатор кодека             : S_TEXT/UTF8
Идентификатор кодека/Информация  : UTF-8 Plain Text
Язык                             : Russian
[br]
Текст #2
Идентификатор                    : 8
Формат                           : UTF-8
Идентификатор кодека             : S_TEXT/UTF8
Идентификатор кодека/Информация  : UTF-8 Plain Text
Язык                             : English
[br]
Меню
00:00:00.000                     : en:00:00:00.000
00:04:09.792                     : en:00:04:09.792
00:13:11.000                     : en:00:13:11.000
00:15:13.375                     : en:00:15:13.375
00:24:02.792                     : en:00:24:02.792
00:33:59.375                     : en:00:33:59.375
00:43:57.375                     : en:00:43:57.375
00:53:47.375                     : en:00:53:47.375
01:00:19.000                     : en:01:00:19.000
01:04:21.000                     : en:01:04:21.000
01:12:01.375                     : en:01:12:01.375
01:18:57.375                     : en:01:18:57.375
[Профиль] [ЛС]
Кто просматривает тему:

Форум Тема Автор Размер
Документальные HD BBC: Искусство перевоплощения - метаморфоз / Metamorphosis. The Science of Change [H264/720p - LQ] (2013) HDTVRip sergej644 1.2 GB
Словари и переводчики PROMT Expert 10 Build v9.0.526 Portable / Переводчик (RUS<->ENG) [2014,Rus] sergej644 330 MB
Apple Mac OS X (ОС и ПО) TextGrabber + Translator: OCR распознавание, сканер и переводчик текста [4.3.2, Производительность, iOS 7.0, RUS] reversefile 41 MB
Программы [Справочник] [Справочник] Vse-Taxi - каталог перевозчиков России v1.1.4, [Android 4.0+, RUS] [Android 4.0, RUS] TorrentFilm 4 MB
Фильмы (HD Rips | 720p, 1080p) Антибумер (2004) BDRip 720p | Смешной перевод BOSS 3.62 GB
Фильмы 2015 года Белая бестия (цензурная версия) / Beauty and the Beast (2015) BDRip | Смешной перевод BOSS 1.12 GB
Фильмы (HD Rips | 720p, 1080p) Властелин колец: Братва и кольцо / The Lord of the Rings: The Fellowship of the Ring (2002) BDRip 1080p | Смешной перевод BOSS 12.69 GB
Фильмы (HD Rips | 720p, 1080p) Властелин колец: Две сорванные башни / The Lord of the Rings: The Two Towers (2003) BDRip 1080p | Смешной перевод Russian Mafia 12.7 GB
Показать сообщения:    

Текущее время: Сегодня 00:42

Часовой пояс: GMT



Вы не можете начинать темы
Вы не можете отвечать на сообщения
Вы не можете редактировать свои сообщения
Вы не можете удалять свои сообщения
Вы не можете голосовать в опросах
Вы не можете прикреплять файлы к сообщениям
Вы не можете скачивать файлы