Перевозчик: Наследие / The Transporter Refueled (Камиль Деламарр / Camille Delamarre) [2015, Франция, Китай, Бельгия, боевик, триллер, криминал, BDRip-AVC] Dub

 
Автор Сообщение

TorrentFilm ®

Пол:

Стаж: 2 года

Сообщений: 7741



Награды: Нет

Торрент-статистика

Создавать темы 15-Дек-2015 00:12

[Цитировать]

Перевозчик: НаследиеThe Transporter Refueled

Страна: Франция, Китай, Бельгия
Жанр: боевик, триллер, криминал
Год выпуска: 2015
Продолжительность: 01:32:01
Перевод: Профессиональный (дублированный) Bluray RUS
Cубтитры: нет
Оригинальная аудиодорожка: нет
Режиссер: Камиль Деламарр / Camille Delamarre
В ролях: Эд Скрейн, Рэй Стивенсон, Лоан Шабаноль, Габриэлла Райт, Татьяна Пайкович, Венься Ю, Радивойе Буквич, Ноэми Ленуар, Юрий Колокольников, Ленн Кудрявицки
Описание: Фрэнк Мартин — самый высококвалифицированный перевозчик, которого только можно нанять за деньги. Ставки выше, технологии поднялись на более высокий уровень, но правила те же: никогда не изменять условия сделки, никаких имен и никогда не открывать груз.
Когда Фрэнка нанимает хитроумная красотка Анна и ее три очаровательные сообщницы, он быстро выясняет, что его водят за нос. Анна и ее команда похитили его отца, чтобы заставить Фрэнка помочь им разобраться с группой безжалостных торговцев людьми.
Доп. информация:
Релиз группы:
Качество видео: BDRip-AVC | Перевозчик: Наследие / The Transporter Refueled (2015) Blu-ray RUS 1080i AVC DTS-HD 5.1| HD club
Формат видео: MKV
Видео: 1148x482 (2:40:1), 25,00 fps, 4180 Кbps, 0.302 bit/pixe
Аудио: 48 kHz, AC3 Dolby Digital, 3/2 (L,C,R,l,r) + LFE ch, ~448.00 kbps avg | DUB

MediaInfo

General
Unique ID : 241588507520404839039494406146863568823 (0xB5C0410BBC9435349DD1BF4E992E97B7)
Complete name : D:\Мои рипы\Перевозчик наследие\The Transporter Refueled by_IVAN@190282.mkv
Format : Matroska
Format version : Version 4 / Version 2
File size : 3.04 GiB
Duration : 1h 32mn
Overall bit rate : 4 722 Kbps
Movie name : The Transporter Refueled by_IVAN@190282
Encoded date : UTC 2015-12-12 17:31:36
Writing application : mkvmerge v8.6.1 ('Flying') 64bit
Writing library : libebml v1.3.3 + libmatroska v1.4.4
Attachements : cover.jpg
DURATION : 01:32:01.888000000
NUMBER_OF_FRAMES : 172559
NUMBER_OF_BYTES : 309225728
_STATISTICS_WRITING_APP : mkvmerge v8.6.1 ('Flying') 64bit
_STATISTICS_WRITING_DATE_UT : 2015-12-12 17:31:36
_STATISTICS_TAGS : BPS DURATION NUMBER_OF_FRAMES NUMBER_OF_BYTES
Video
ID : 1
Format : AVC
Format/Info : Advanced Video Codec
Format profile : High@L4.1
Format settings, CABAC : Yes
Format settings, ReFrames : 11 frames
Codec ID : V_MPEG4/ISO/AVC
Duration : 1h 32mn
Bit rate : 4 180 Kbps
Width : 1 148 pixels
Height : 482 pixels
Display aspect ratio : 2.40:1
Frame rate mode : Constant
Frame rate : 25.000 fps
Color space : YUV
Chroma subsampling : 4:2:0
Bit depth : 8 bits
Scan type : Progressive
Bits/(Pixel*Frame) : 0.302
Stream size : 2.69 GiB (89%)
Title : The Transporter Refueled by_IVAN@190282
Writing library : x264 core 148 r2638kMod 7599210
Encoding settings : cabac=1 / ref=11 / deblock=1:-3:-2 / analyse=0x3:0x133 / me=umh / subme=11 / psy=1 / fade_compensate=0.00 / psy_rd=1.00:0.05 / mixed_ref=1 / me_range=48 / chroma_me=1 / trellis=2 / 8x8dct=1 / cqm=0 / deadzone=21,11 / fast_pskip=0 / chroma_qp_offset=-3 / threads=6 / lookahead_threads=6 / sliced_threads=0 / nr=0 / decimate=1 / interlaced=0 / bluray_compat=0 / constrained_intra=0 / fgo=0 / bframes=16 / b_pyramid=2 / b_adapt=2 / b_bias=0 / direct=3 / weightb=1 / open_gop=0 / weightp=2 / keyint=240 / keyint_min=24 / scenecut=40 / intra_refresh=0 / rc_lookahead=60 / rc=crf / mbtree=0 / crf=17.4000 / qcomp=0.60 / qpmin=0 / qpmax=69 / qpstep=4 / vbv_maxrate=50000 / vbv_bufsize=62500 / crf_max=0.0 / nal_hrd=none / filler=0 / ip_ratio=1.40 / pb_ratio=1.30 / aq=2:1.10
Language : English
Default : Yes
Forced : No
Color range : Limited
Color primaries : BT.709
Transfer characteristics : BT.709
Matrix coefficients : BT.709
DURATION : 01:32:01.760000000
NUMBER_OF_FRAMES : 138044
NUMBER_OF_BYTES : 2948368661
_STATISTICS_WRITING_APP : mkvmerge v8.6.1 ('Flying') 64bit
_STATISTICS_WRITING_DATE_UT : 2015-12-12 17:31:36
_STATISTICS_TAGS : BPS DURATION NUMBER_OF_FRAMES NUMBER_OF_BYTES
Audio
ID : 2
Format : AC-3
Format/Info : Audio Coding 3
Mode extension : CM (complete main)
Format settings, Endianness : Big
Codec ID : A_AC3
Duration : 1h 32mn
Bit rate mode : Constant
Bit rate : 448 Kbps
Channel(s) : 6 channels
Channel positions : Front: L C R, Side: L R, LFE
Sampling rate : 48.0 KHz
Compression mode : Lossy
Stream size : 295 MiB (9%)
Title : Dub Bluray RUS
Default : Yes
Forced : No
Menu
00:00:00.000 : en:00:00:00.000
00:03:29.042 : en:00:03:29.042
00:06:43.278 : en:00:06:43.278
00:11:22.599 : en:00:11:22.599
00:15:01.651 : en:00:15:01.651
00:20:21.512 : en:00:20:21.512
00:24:49.905 : en:00:24:49.905
00:27:03.664 : en:00:27:03.664
00:29:29.643 : en:00:29:29.643
00:32:56.600 : en:00:32:56.600
00:35:48.605 : en:00:35:48.605
00:37:35.879 : en:00:37:35.879
00:41:53.845 : en:00:41:53.845
00:48:09.887 : en:00:48:09.887
00:52:44.536 : en:00:52:44.536
00:57:42.793 : en:00:57:42.793
01:01:01.658 : en:01:01:01.658
01:06:43.541 : en:01:06:43.541
01:10:50.204 : en:01:10:50.204
01:13:06.048 : en:01:13:06.048
01:18:27.244 : en:01:18:27.244
01:20:18.397 : en:01:20:18.397
01:21:53.408 : en:01:21:53.408
01:24:16.885 : en:01:24:16.885
01:27:00.132 : en:01:27:00.132
01:28:45.070 : en:01:28:45.070
01:30:07.110 : en:01:30:07.110

x264 log

VIDEO ENCODING
x264 [info]: frame I:1305 Avg QP:17.30 size: 71637 PSNR Mean Y:46.17 U:51.57 V:51.12 Avg:47.22 Global:46.59
x264 [info]: frame P:38450 Avg QP:18.94 size: 35446 PSNR Mean Y:44.95 U:51.30 V:50.74 Avg:46.03 Global:45.27
x264 [info]: frame B:98289 Avg QP:20.63 size: 15180 PSNR Mean Y:43.86 U:51.34 V:50.55 Avg:45.03 Global:44.22
x264 [info]: consecutive B-frames: 5.8% 7.2% 12.1% 30.3% 19.8% 17.6% 4.4% 0.7% 0.7% 0.2% 0.2% 0.1% 0.4% 0.0% 0.3% 0.0% 0.1%
x264 [total]: encoded 138044 frames, 6.59 fps, 4271.64 kb/s, duration 5:49:02.09
[spoiler="Скриншоты">

Скриншот c названием фильма [spoiler="Скриншоты

Сравнения"]
http://torrentfilm.net/forum/viewtopic.php?t=5132136
http://screenshotcomparison.com/comparison/154233/picture:0
Убедительная просьба пожалуйста кто скачал не бросайте раздачу!!!
[Профиль] [ЛС]
Кто просматривает тему:

Форум Тема Автор Размер
Документальные HD BBC: Искусство перевоплощения - метаморфоз / Metamorphosis. The Science of Change [H264/720p - LQ] (2013) HDTVRip sergej644 1.2 GB
Словари и переводчики PROMT Expert 10 Build v9.0.526 Portable / Переводчик (RUS<->ENG) [2014,Rus] sergej644 330 MB
Apple Mac OS X (ОС и ПО) TextGrabber + Translator: OCR распознавание, сканер и переводчик текста [4.3.2, Производительность, iOS 7.0, RUS] reversefile 41 MB
Программы [Справочник] [Справочник] Vse-Taxi - каталог перевозчиков России v1.1.4, [Android 4.0+, RUS] [Android 4.0, RUS] TorrentFilm 4 MB
Фильмы (HD Rips | 720p, 1080p) Антибумер (2004) BDRip 720p | Смешной перевод BOSS 3.62 GB
Фильмы 2015 года Белая бестия (цензурная версия) / Beauty and the Beast (2015) BDRip | Смешной перевод BOSS 1.12 GB
Фильмы (HD Rips | 720p, 1080p) Властелин колец: Братва и кольцо / The Lord of the Rings: The Fellowship of the Ring (2002) BDRip 1080p | Смешной перевод BOSS 12.69 GB
Фильмы (HD Rips | 720p, 1080p) Властелин колец: Две сорванные башни / The Lord of the Rings: The Two Towers (2003) BDRip 1080p | Смешной перевод Russian Mafia 12.7 GB
Показать сообщения:    

Текущее время: Сегодня 00:36

Часовой пояс: GMT



Вы не можете начинать темы
Вы не можете отвечать на сообщения
Вы не можете редактировать свои сообщения
Вы не можете удалять свои сообщения
Вы не можете голосовать в опросах
Вы не можете прикреплять файлы к сообщениям
Вы не можете скачивать файлы