Перевозчик: Наследие / The Transporter Refueled (Камиль Деламарр / Camille Delamarre) [2015, Франция, Китай, Бельгия, боевик, триллер, криминал, BDRip-AVC] Dub + Sub (Eng, Spa, Vie)

 
Автор Сообщение

TorrentFilm ®

Пол:

Стаж: 2 года

Сообщений: 7741



Награды: Нет

Торрент-статистика

Создавать темы 15-Дек-2015 00:12

[Цитировать]

Перевозчик: Наследие
The Transporter Refueled

Страна: Франция, Китай, Бельгия
Жанр: боевик, триллер, криминал
Год выпуска: 2015
Продолжительность: 01:35:54
Перевод: Профессиональный (полное дублирование) [Лицензия BD RUS]
Субтитры: Английские, испанские, вьетнамские
Оригинальная аудиодорожка: нет
Режиссер: Камиль Деламарр / Camille Delamarre
В ролях: Эд Скрейн, Рэй Стивенсон, Лоан Шабаноль, Габриэлла Райт, Татьяна Пайкович, Венься Ю, Радивойе Буквич, Ноэми Ленуар, Юрий Колокольников, Ленн Кудрявицки, Самир Гесми, Анатоль Таубман
Описание:
Фрэнк Мартин - самый высококвалифицированный перевозчик, которого только можно нанять за деньги. Ставки выше, технологии поднялись на более высокий уровень, но правила те же: никогда не изменять условия сделки, никаких имен и никогда не открывать груз.
Когда Фрэнка нанимает хитроумная красотка Анна и ее три очаровательные сообщницы, он быстро выясняет, что его водят за нос. Анна и ее команда похитили его отца, чтобы заставить Фрэнка помочь им разобраться с группой безжалостных торговцев людьми. Релиз:
Автор рипа: Stalker oK
Сэмпл
Качество видео: BDRip-AVC [kinozal / Blu-ray Remux / 1080p]
Формат видео: MKV
Видео кодек: AVC
Аудио кодек: AC3
Видео: 1720 Кбит/сек, 960x400 (2.40:1), 23,976 кадр/сек, AVC
Аудио: русский, 448 Кбит/сек, 48 КГц, 16 бит, 5.1, AC3
Навигация по главам: есть

MediaInfo

General
Unique ID : 183983713774001241466736478014700872799 (0x8A69F96FE61F43159182177CCCC9645F)
Complete name : M:\Rips\The Transporter Refueled\The.Transporter.Refueled.2015.BDRip-AVC.Dub.1.45Gb.stalkerok.new-team.mkv
Format : Matroska
File size : 1.45 GiB
Duration : 1h 35mn
Overall bit rate : 2 164 Kbps
Movie name : The Transporter Refueled (2015) (New-Team) (Rip by Stalker oK)
Encoded date : UTC 2015-12-11 19:32:14
Writing application : mkvmerge v7.9.0 ('Birds') 64bit
Writing library : libebml v1.3.1 + libmatroska v1.4.2
Video
ID : 1
Format : AVC
Format/Info : Advanced Video Codec
Format profile : High@L4.1
Format settings, CABAC : Yes
Format settings, ReFrames : 14 frames
Codec ID : V_MPEG4/ISO/AVC
Duration : 1h 35mn
Bit rate : 1 720 Kbps
Width : 960 pixels
Height : 400 pixels
Display aspect ratio : 2.40:1
Frame rate : 23.976 fps
Color space : YUV
Chroma subsampling : 4:2:0
Bit depth : 8 bits
Scan type : Progressive
Bits/(Pixel*Frame) : 0.187
Stream size : 1.12 GiB (77%)
Title : The Transporter Refueled (2015) (New-Team) (Rip by Stalker oK)
Writing library : x264 core 148 r2638 7599210
Encoding settings : cabac=1 / ref=14 / deblock=1:-3:-3 / analyse=0x3:0x133 / me=umh / subme=11 / psy=1 / psy_rd=1.00:0.10 / mixed_ref=1 / me_range=48 / chroma_me=1 / trellis=2 / 8x8dct=1 / cqm=0 / deadzone=21,11 / fast_pskip=0 / chroma_qp_offset=-3 / threads=12 / lookahead_threads=3 / sliced_threads=0 / nr=0 / decimate=0 / interlaced=0 / bluray_compat=0 / constrained_intra=0 / bframes=15 / b_pyramid=2 / b_adapt=2 / b_bias=0 / direct=3 / weightb=1 / open_gop=0 / weightp=2 / keyint=240 / keyint_min=23 / scenecut=40 / intra_refresh=0 / rc_lookahead=60 / rc=2pass / mbtree=0 / bitrate=1720 / ratetol=1.0 / qcomp=0.70 / qpmin=0 / qpmax=69 / qpstep=4 / cplxblur=20.0 / qblur=0.5 / vbv_maxrate=50000 / vbv_bufsize=62500 / nal_hrd=none / filler=0 / ip_ratio=1.40 / pb_ratio=1.30 / aq=3:0.90
Audio
ID : 2
Format : AC-3
Format/Info : Audio Coding 3
Mode extension : CM (complete main)
Codec ID : A_AC3
Duration : 1h 35mn
Bit rate mode : Constant
Bit rate : 448 Kbps
Channel(s) : 6 channels
Channel positions : Front: L C R, Side: L R, LFE
Sampling rate : 48.0 KHz
Bit depth : 16 bits
Compression mode : Lossy
Stream size : 307 MiB (21%)
Language : Russian
Text #1
ID : 3
Format : UTF-8
Codec ID : S_TEXT/UTF8
Codec ID/Info : UTF-8 Plain Text
Title : Forced
Language : English
Text #2
ID : 4
Format : UTF-8
Codec ID : S_TEXT/UTF8
Codec ID/Info : UTF-8 Plain Text
Language : English
Text #3
ID : 5
Format : UTF-8
Codec ID : S_TEXT/UTF8
Codec ID/Info : UTF-8 Plain Text
Title : SDH
Language : English
Text #4
ID : 6
Format : UTF-8
Codec ID : S_TEXT/UTF8
Codec ID/Info : UTF-8 Plain Text
Language : Spanish
Text #5
ID : 7
Format : UTF-8
Codec ID : S_TEXT/UTF8
Codec ID/Info : UTF-8 Plain Text
Language : Vietnamese
Menu
00:00:00.000 : en:00:00:00.000
00:03:29.042 : en:00:03:29.042
00:06:43.278 : en:00:06:43.278
00:11:22.599 : en:00:11:22.599
00:15:01.651 : en:00:15:01.651
00:20:21.512 : en:00:20:21.512
00:24:49.905 : en:00:24:49.905
00:27:03.664 : en:00:27:03.664
00:29:29.643 : en:00:29:29.643
00:32:56.600 : en:00:32:56.600
00:35:48.605 : en:00:35:48.605
00:37:35.879 : en:00:37:35.879
00:41:53.845 : en:00:41:53.845
00:48:09.887 : en:00:48:09.887
00:52:44.536 : en:00:52:44.536
00:57:42.793 : en:00:57:42.793
01:01:01.658 : en:01:01:01.658
01:06:43.541 : en:01:06:43.541
01:10:50.204 : en:01:10:50.204
01:13:06.048 : en:01:13:06.048
01:18:27.244 : en:01:18:27.244
01:20:18.397 : en:01:20:18.397
01:21:53.408 : en:01:21:53.408
01:24:16.885 : en:01:24:16.885
01:27:00.132 : en:01:27:00.132
01:28:45.070 : en:01:28:45.070
01:30:07.110 : en:01:30:07.110

Скриншоты

[Профиль] [ЛС]
Кто просматривает тему:

Форум Тема Автор Размер
Документальные HD BBC: Искусство перевоплощения - метаморфоз / Metamorphosis. The Science of Change [H264/720p - LQ] (2013) HDTVRip sergej644 1.2 GB
Словари и переводчики PROMT Expert 10 Build v9.0.526 Portable / Переводчик (RUS<->ENG) [2014,Rus] sergej644 330 MB
Apple Mac OS X (ОС и ПО) TextGrabber + Translator: OCR распознавание, сканер и переводчик текста [4.3.2, Производительность, iOS 7.0, RUS] reversefile 41 MB
Программы [Справочник] [Справочник] Vse-Taxi - каталог перевозчиков России v1.1.4, [Android 4.0+, RUS] [Android 4.0, RUS] TorrentFilm 4 MB
Фильмы (HD Rips | 720p, 1080p) Антибумер (2004) BDRip 720p | Смешной перевод BOSS 3.62 GB
Фильмы 2015 года Белая бестия (цензурная версия) / Beauty and the Beast (2015) BDRip | Смешной перевод BOSS 1.12 GB
Фильмы (HD Rips | 720p, 1080p) Властелин колец: Братва и кольцо / The Lord of the Rings: The Fellowship of the Ring (2002) BDRip 1080p | Смешной перевод BOSS 12.69 GB
Фильмы (HD Rips | 720p, 1080p) Властелин колец: Две сорванные башни / The Lord of the Rings: The Two Towers (2003) BDRip 1080p | Смешной перевод Russian Mafia 12.7 GB
Показать сообщения:    

Текущее время: Сегодня 20:43

Часовой пояс: GMT



Вы не можете начинать темы
Вы не можете отвечать на сообщения
Вы не можете редактировать свои сообщения
Вы не можете удалять свои сообщения
Вы не можете голосовать в опросах
Вы не можете прикреплять файлы к сообщениям
Вы не можете скачивать файлы