Первый этаж (Игорь Минаев) [1990, СССР, Драма, Мелодрама, DVD9] Sub Fre(Интертитры) + Original Rus / Malavida

 
Автор Сообщение

TorrentFilm ®

Пол:

Стаж: 2 года

Сообщений: 7741



Награды: Нет

Торрент-статистика

Создавать темы 02-Янв-2016 00:11

[Цитировать]

Первый этаж
Страна:СССР
Студия:Одесская киностудия.
Жанр:Драма, Мелодрама
Год выпуска:1990
Продолжительность:01:05:59
Производитель:Malavida
Перевод:Не требуется
Cубтитры:Французские интертитры
Оригинальная аудиодорожка:Русский
Премьера (мир):8.09.1990
Режиссер:Игорь МинаевСценарий:Ольга МихайловаОператор:Владимир Панков, Виталий Соколов-АлександровКомпозитор:Анатолий ДергачевХудожник:Анатолий НаумовВ ролях:Кирилл Алексеев, Александр Берда, Людмила Давыдова, Евгения Добровольская, Максим Киселев, Светлана Крючкова, Николай ТокарьОписание:Частный случай, рассказ о том, как восемнадцатилетний парень полюбил девушку старше его — и убил ее, когда понял, что она его не любит и ищет смерти… Человек, любовь, смерть, свобода — вот круг фильма, продолжающего наблюдение за жизнью обитателей нижних этажей общества, начатое в «Холодном марте»… Жизнь не может не быть прекрасной даже в предчувствии апокалипсиса. А может быть, тогда она кажется особенно прекрасной.

Это интересно

Игорь Минаев-http://fr.wikipedia.org/wiki/Igor_Minaiev

Награды и номинации

Специальный приз за женскую роль на МКФ в Женеве.

Рецензия

Solfeggiette(Кинопоиск)
Только Первый
Фильм не очень известен и популярен в России, хотя и является лауреатом Каннского кинофестиваля. И очень жаль, ведь этот фильм не просто стоит посмотреть, его нужно посмотреть.
В первую очередь поразила операторская работа. Кино черно-белое и игра света и тени практически в каждом кадре потрясает. Я давно не видела такой потрясающей, завораживающей операторской работы и это первое и самое главное, что я отметила в фильме.
Однако сценарий объективно операторской работе ничуть не уступает. Казалось бы, он не сильно оригинален, параллели между любовью и смертью проводят очень часто, однако советская атмосфера выжимает из сценария нечто большее, более трагичное и более близкое для русских любого поколения. Тема поднятая в этом фильме в первую очередь жизненна, но при этом доведена до экстримальных ее проявлений и это главный шарм картины.
Сценарий обыгрывают не только операторская работа и локация, но и безусловно игра актеров. К сожалению из блестящего состава карьеру смогли сделать только Крючкова и Добровольская, однако прициной этому уж точно не являлось отсутствие таланта у остальных. Весь состав без исключения именно прожил год жизни своих персонажей, крупные планы же просто зомбируют своей энергетикой.
Название фильма служит лучше любого краткого содержания — «Первый этаж» это одновременно квартира героини, социальный класс героев и обозначение первых и скорее всего последних отношений Сергея. Учитывая все вышенаписанное и символику цифры «один» в этом фильме я бы с удовольствием поставила 11 баллов.
10 из 10
Бонусы:(Без перевода)•Интервью с режисcером Игорем Минаевым.Меню:Французский, анимированное, озвученное.

Сэмпл:http://multi-up.com/988796
Тип релиза:DVD9
Контейнер:DVD-Video
Видео:PAL 4:3 (720x576) VBR, 8000 Кбит/сек, 25,000 кадров/сек
Аудио :Русский:AC3, 2 ch, 48.0 KHz, 192 Кбит/секФормат субтитров:prerendered (DVD/IDX+SUB)

Dvd Info

Title: Первый этаж
Size: 5.89 Gb ( 6 180 716,00 KBytes ) - DVD-9
Enabled regions: 1, 2, 3, 4, 5, 6, 7, 8
VTS_01 :
Play Length: 01:05:59
Video: PAL 4:3 (720x576) VBR
Audio:
English, AC3, 2/0 (L,R) ch, 192 kbps, Delay 0 mSec
VTS_02 :
Play Length: 00:38:34
Video: PAL 4:3 (720x576) VBR
Audio:
Francais, AC3, 2/0 (L,R) ch, 192 kbps, Delay 0 mSec

MediaInfo

Общее
Полное имя : F:\Первый этаж\VIDEO_TS\VTS_01_1.VOB
Формат : MPEG-PS
Размер файла : 1024 Мбайт
Продолжительность : 17 м.
Общий поток : 8338 Кбит/сек
Видео
Идентификатор : 224 (0xE0)
Формат : MPEG Video
Версия формата : Version 2
Профиль формата : Main@Main
Параметр BVOP формата : Да
Параметр матрицы формата : По умолчанию
Параметр GOP формата : M=3, N=12
Продолжительность : 17 м.
Битрейт : 8000 Кбит/сек
Ширина : 720 пикселей
Высота : 576 пикселей
Соотношение сторон : 4:3
Частота кадров : 25,000 кадров/сек
Стандарт вещания : PAL
Цветовое пространство : YUV
Субдискретизация насыщенности : 4:2:0
Битовая глубина : 8 бит
Тип развёртки : Чересстрочная
Порядок развёртки : Верхнее поле первое
Метод сжатия : С потерями
Бит/(Пиксели*Кадры) : 0.772
Временной код первого кадра : 09:59:59:00
Оригинал временного кода : Group of pictures header
Размер потока : 980 Мбайт (96%)
Аудио
Идентификатор : 189 (0xBD)-128 (0x80)
Формат : AC-3
Формат/Информация : Audio Coding 3
Расширение режима : CM (complete main)
Параметр Endianness формата : Big
Режим смешивания : DVD-Video
Продолжительность : 17 м.
Вид битрейта : Постоянный
Битрейт : 192 Кбит/сек
Каналы : 2 канала
Расположение каналов : Front: L R
Частота : 48,0 КГц
Битовая глубина : 16 бит
Метод сжатия : С потерями
Размер потока : 23,6 Мбайт (2%)

Скриншоты меню

Скриншоты

Скриншоты доп. материалов

Релиз: Уважаемые пользователи!Найдите пару минут поблагодарить релизера и высказаться в топике раздачи.Ваше мнение - бальзам для раздающего и пища для ума остальным пользователям.Мои раздачи
[Профиль] [ЛС]
Кто просматривает тему:

Форум Тема Автор Размер
Author's Song (Авторская песня) Владимир Высоцкий - Я Первый Раз В Италии 1979 (Solyd Records 1999) [APE, image +.cue, lossless] sergej644 262 MB
Фильмы (HD DVD, Blu-ray и BDRemux) 8 первых свиданий (2012) Blu-Ray Remux 1080p sergej644 14.21 GB
Фильмы (HD Rips | 720p, 1080p) 8 первых свиданий (Дэвид Додсон, Александр Маляревский) [2012, Россия, комедия, Blu-ray Disc 1080p] TorrentFilm 18.26 GB
Фильмы (DVD 5/9) 8 первых свиданий (Дэвид Додсон, Александр Маляревский) [2012, Россия, Мелодрама, комедия, BD>DVD5 (Custom)] TorrentFilm 4.32 GB
Фильмы (DVD 5/9) 8 первых свиданий (Дэвид Додсон, Александр Маляревский) [2012, Россия, Мелодрама, комедия, BD>DVD9 (Custom)] TorrentFilm 6 GB
BBC BBC: Первый в мире компьютер. Разгадка Антикитерского механизма / The World's First Computer: Decoding Antikythera Mechanism (Майкл Бекхэм / Michael Beckham) [2012 г., Докум... skorpionN 1.46 GB
Бокс, Бои без правил, К1 Floyd Mayweather Jr. vs Manny Pacquiao / Флойд Мэйвезер - Мэнни Пакьяо / Первый HD [02.05.2015, Бокс, 50fps, HDTVRip 720p, RU] Russian Mafia 3.34 GB
Бокс, Бои без правил, К1 Floyd Mayweather Jr. vs Manny Pacquiao / Флойд Мэйвезер - Мэнни Пакьяо / Первый HD [02.05.2015, Бокс, H.264, HDTV/1080i, RU] Russian Mafia 10.35 GB
Показать сообщения:    

Текущее время: Сегодня 00:34

Часовой пояс: GMT



Вы не можете начинать темы
Вы не можете отвечать на сообщения
Вы не можете редактировать свои сообщения
Вы не можете удалять свои сообщения
Вы не можете голосовать в опросах
Вы не можете прикреплять файлы к сообщениям
Вы не можете скачивать файлы