Первый шаг в бездну (Роман Новолокин) [2015, Документальный, HDTV 1080i]

 
Автор Сообщение

TorrentFilm ®

Пол:

Стаж: 2 года

Сообщений: 7741



Награды: Нет

Торрент-статистика

Создавать темы 30-Мар-2015 00:02

[Цитировать]

Первый шаг в бездну
Год выпуска: 2015
Страна: Россия
Студия: ООО "КОНТРАСТ"
Жанр: Документальный
Продолжительность: 00:49:49
Перевод: Не требуется
Русские субтитры: нет
Режиссер: Роман Новолокин
Описание: 18 марта 1965 года стал эпохальной датой в истории человечества. Советский космонавт Алексей Леонов первым на планете вышел за пределы космического корабля.
Но чтобы все это состоялось, нужно было пройти большой путь. Подготовить корабль, разработать скафандр, продумать всевозможные внештатные ситуации...
Мы побывали на научно-производственном предприятии "Звезда" и увидели испытания скафандра в барокамере. Скафандр, в котором сейчас выходят в космос, был разработан именно для Леонова. Он отличался от предыдущих, во-первых, специальной теплозащитной оболочкой от солнечного излучения. А во-вторых, тем, что в нем космонавт мог свободно двигаться. Для этого нужно было найти материалы, из которых это все должно быть изготовлено – достаточно гибкие и при этом прочные. Созданием скафандра занималось несколько предприятий. И в том числе НИИ резиновых изделий, где работала профессор-химик Варвара Васильевна Чичагова-Чёрная, которая позже стала игуменьей Новодевичьего монастыря.
Доп. информация: Релиз -

Рип чистый. Без посторонних надписей. Выкладывается как есть.
Качество: HDTV 1080i
Контейнер: TS
Видео кодек: AVC
Аудио кодек: MP2
Видео: 1920x1080 (16:9) 25.000 fps ~ 11.8 Mbps, 0.228 bit/pixel
Аудио 1: AC3, 6 channels, 48000Hz, 384 Кбит/сек
Аудио 2: MPEG Audio 48000Hz stereo 192 Кбит/сек 2 channels

Скриншоты

MI

GeneralID : 1 (0x1)Complete name : H:\ВЫКЛАДКА\Март\Первый шаг в бездну (2015, Документальный, HDTV 1080i) (MYDIMKA).tsFormat : MPEG-TSFile size : 4.03 GiBDuration : 49mn 49sOverall bit rate mode : VariableOverall bit rate : 11.6 Mbps
VideoID : 1603 (0x643)Menu ID : 603 (0x25B)Format : AVCFormat/Info : Advanced Video CodecFormat profile : High@L4.0Format settings, CABAC : YesFormat settings, ReFrames : 3 framesCodec ID : 27Duration : 49mn 48sBit rate : 10.4 MbpsWidth : 1 920 pixelsHeight : 1 080 pixelsDisplay aspect ratio : 16:9Frame rate : 25.000 fpsStandard : ComponentColor space : YUVChroma subsampling : 4:2:0Bit depth : 8 bitsScan type : InterlacedScan order : Top Field FirstBits/(Pixel*Frame) : 0.201Stream size : 3.63 GiB (90%)Color primaries : BT.709Transfer characteristics : BT.709Matrix coefficients : BT.709
Audio #1ID : 2603 (0xA2B)Menu ID : 603 (0x25B)Format : AC-3Format/Info : Audio Coding 3Mode extension : CM (complete main)Format settings, Endianness : BigCodec ID : 6Duration : 49mn 48sBit rate mode : ConstantBit rate : 384 KbpsChannel(s) : 6 channelsChannel positions : Front: L C R, Side: L R, LFESampling rate : 48.0 KHzBit depth : 16 bitsCompression mode : LossyDelay relative to video : -120msStream size : 137 MiB (3%)Language : Russian
Audio #2ID : 2604 (0xA2C)Menu ID : 603 (0x25B)Format : MPEG AudioFormat version : Version 1Format profile : Layer 2Codec ID : 3Duration : 49mn 48sBit rate mode : ConstantBit rate : 192 KbpsChannel(s) : 2 channelsSampling rate : 48.0 KHzCompression mode : LossyDelay relative to video : -120msStream size : 68.4 MiB (2%)Language : Russian
[Профиль] [ЛС]
Кто просматривает тему:

Форум Тема Автор Размер
Author's Song (Авторская песня) Владимир Высоцкий - Я Первый Раз В Италии 1979 (Solyd Records 1999) [APE, image +.cue, lossless] sergej644 262 MB
Фильмы (HD DVD, Blu-ray и BDRemux) 8 первых свиданий (2012) Blu-Ray Remux 1080p sergej644 14.21 GB
Фильмы (HD Rips | 720p, 1080p) 8 первых свиданий (Дэвид Додсон, Александр Маляревский) [2012, Россия, комедия, Blu-ray Disc 1080p] TorrentFilm 18.26 GB
Фильмы (DVD 5/9) 8 первых свиданий (Дэвид Додсон, Александр Маляревский) [2012, Россия, Мелодрама, комедия, BD>DVD5 (Custom)] TorrentFilm 4.32 GB
Фильмы (DVD 5/9) 8 первых свиданий (Дэвид Додсон, Александр Маляревский) [2012, Россия, Мелодрама, комедия, BD>DVD9 (Custom)] TorrentFilm 6 GB
BBC BBC: Первый в мире компьютер. Разгадка Антикитерского механизма / The World's First Computer: Decoding Antikythera Mechanism (Майкл Бекхэм / Michael Beckham) [2012 г., Докум... skorpionN 1.46 GB
Бокс, Бои без правил, К1 Floyd Mayweather Jr. vs Manny Pacquiao / Флойд Мэйвезер - Мэнни Пакьяо / Первый HD [02.05.2015, Бокс, 50fps, HDTVRip 720p, RU] Russian Mafia 3.34 GB
Бокс, Бои без правил, К1 Floyd Mayweather Jr. vs Manny Pacquiao / Флойд Мэйвезер - Мэнни Пакьяо / Первый HD [02.05.2015, Бокс, H.264, HDTV/1080i, RU] Russian Mafia 10.35 GB
Показать сообщения:    

Текущее время: Сегодня 08:53

Часовой пояс: GMT



Вы не можете начинать темы
Вы не можете отвечать на сообщения
Вы не можете редактировать свои сообщения
Вы не можете удалять свои сообщения
Вы не можете голосовать в опросах
Вы не можете прикреплять файлы к сообщениям
Вы не можете скачивать файлы