Первый Шаг в Бездну (Роман Новолокин) [2015, Документальный, HDTV 720p]

 
Автор Сообщение

TorrentFilm ®

Пол:

Стаж: 2 года 6 месяцев

Сообщений: 7773



Награды: Нет

Торрент-статистика

Создавать темы 28-Мар-2015 00:02

[Цитировать]

Первый Шаг в Бездну- Год выпуска: 2015
Страна: Россия
Студия: Первый Канала HD | ООО "КОНТРАСТ"
Жанр: Документальный
Продолжительность: 0:49:47
Продюсеры: Андрей Сычев, Олег Вольнов
Автор: Елена Демидова
Режиссер: Роман Новолокин-Описание: 18 марта 1965 года стал эпохальной датой в истории человечества. Советский космонавт Алексей Леонов первым на планете вышел за пределы космического корабля. Но чтобы все это состоялось, нужно было пройти большой путь. Подготовить корабль, разработать скафандр, продумать всевозможные внештатные ситуации...-Автор рипа: lrn
Автор записи: mydimka
Сэмпл: sendfile-Тип релиза: HDTV 720p
Контейнер: MKV
Видео: 1280x720 (16:9), 25,000 fps, H264, ~4000 kbps avg, ~0.174 bit/pixel
Аудио: 48 kHz, AC3 Dolby Digital, 3/2 (L,C,R,l,r) + LFE ch, ~384.00 kbps avg-

MediaInfo

GeneralUnique ID : 186380043178027095836150434131152149841 (0x8C377D99398C3333B1240461E05B1D51)Complete name : E:\uTorrent.Temp\Temp\Perviy.Shag.V.Bezdnu.2015.HDTV.720p.x264-lrn.mkvFormat : MatroskaFormat version : Version 4 / Version 2File size : 1.53 GiBDuration : 49mn 48sOverall bit rate : 4 385 KbpsMovie name : Perviy.Shag.V.Bezdnu.2015.HDTV.720p.x264-lrnEncoded date : UTC 2010-02-22 21:41:31Writing application : mkvmerge v5.9.0 ('On The Loose') built on Dec 9 2012 15:37:01Writing library : libebml v1.3.0 + libmatroska v1.4.0DURATION : 00:49:48.840000000NUMBER_OF_FRAMES : 74721NUMBER_OF_BYTES : 1494348054_STATISTICS_WRITING_APP : mkvmerge v7.0.0 ('Where We Going') 32bit built on Jun 9 2014 15:08:34_STATISTICS_WRITING_DATE_UT : 2015-03-21 15:21:05_STATISTICS_TAGS : BPS DURATION NUMBER_OF_FRAMES NUMBER_OF_BYTES
VideoID : 1Format : AVCFormat/Info : Advanced Video CodecFormat profile : High@L4.1Format settings, CABAC : YesFormat settings, ReFrames : 8 framesCodec ID : V_MPEG4/ISO/AVCDuration : 49mn 48sBit rate : 4 000 KbpsWidth : 1 280 pixelsHeight : 720 pixelsDisplay aspect ratio : 16:9Frame rate mode : ConstantFrame rate : 25.000 fpsColor space : YUVChroma subsampling : 4:2:0Bit depth : 8 bitsScan type : ProgressiveBits/(Pixel*Frame) : 0.174Stream size : 1.36 GiB (89%)Writing library : x264 core 142 r2431 ac76440Encoding settings : cabac=1 / ref=8 / deblock=1:-3:-3 / analyse=0x3:0x133 / me=umh / subme=9 / psy=1 / psy_rd=1.00:0.00 / mixed_ref=1 / me_range=32 / chroma_me=1 / trellis=2 / 8x8dct=1 / cqm=0 / deadzone=21,11 / fast_pskip=1 / chroma_qp_offset=-2 / threads=12 / lookahead_threads=2 / sliced_threads=0 / nr=0 / decimate=1 / interlaced=0 / bluray_compat=0 / constrained_intra=0 / bframes=8 / b_pyramid=2 / b_adapt=2 / b_bias=0 / direct=3 / weightb=1 / open_gop=0 / weightp=2 / keyint=250 / keyint_min=25 / scenecut=40 / intra_refresh=0 / rc_lookahead=50 / rc=2pass / mbtree=1 / bitrate=4000 / ratetol=1.0 / qcomp=0.60 / qpmin=0 / qpmax=69 / qpstep=4 / cplxblur=20.0 / qblur=0.5 / vbv_maxrate=62500 / vbv_bufsize=78125 / nal_hrd=none / filler=0 / ip_ratio=1.40 / aq=1:1.00Default : YesForced : No
AudioID : 2Format : AC-3Format/Info : Audio Coding 3Mode extension : CM (complete main)Format settings, Endianness : BigCodec ID : A_AC3Duration : 49mn 48sBit rate mode : ConstantBit rate : 384 KbpsChannel(s) : 6 channelsChannel positions : Front: L C R, Side: L R, LFESampling rate : 48.0 KHzBit depth : 16 bitsCompression mode : LossyStream size : 137 MiB (9%)Language : RussianDefault : YesForced : No

x264 log

raw [info]: 1280x720p 1:1 @ 25/1 fps (cfr)x264 [info]: using SAR=1/1x264 [info]: using cpu capabilities: MMX2 SSE2Fast SSSE3 SSE4.2 AVXx264 [info]: profile High, level 4.1x264 [info]: frame I:534 Avg QP:15.91 size:126594x264 [info]: frame P:18911 Avg QP:18.78 size: 39464x264 [info]: frame B:55276 Avg QP:22.07 size: 12310x264 [info]: consecutive B-frames: 2.4% 2.9% 5.0% 64.3% 9.9% 11.8% 1.5% 1.8% 0.4%x264 [info]: mb I I16..4: 9.1% 70.0% 20.8%x264 [info]: mb P I16..4: 1.9% 7.7% 0.7% P16..4: 46.2% 18.1% 13.5% 0.4% 0.1% skip:11.4%x264 [info]: mb B I16..4: 0.1% 0.7% 0.1% B16..8: 33.6% 6.3% 1.8% direct: 9.1% skip:48.3% L0:39.9% L1:47.7% BI:12.5%x264 [info]: 8x8 transform intra:74.8% inter:67.2%x264 [info]: direct mvs spatial:98.3% temporal:1.7%x264 [info]: coded y,uvDC,uvAC intra: 69.2% 64.0% 30.6% inter: 25.4% 22.6% 1.2%x264 [info]: i16 v,h,dc,p: 39% 20% 8% 33%x264 [info]: i8 v,h,dc,ddl,ddr,vr,hd,vl,hu: 14% 12% 9% 8% 11% 11% 11% 11% 13%x264 [info]: i4 v,h,dc,ddl,ddr,vr,hd,vl,hu: 10% 15% 5% 8% 11% 11% 11% 10% 19%x264 [info]: i8c dc,h,v,p: 39% 28% 18% 15%x264 [info]: Weighted P-Frames: Y:12.5% UV:6.7%x264 [info]: ref P L0: 49.9% 11.6% 16.4% 6.2% 5.1% 4.1% 3.8% 2.6% 0.4% 0.0%x264 [info]: ref B L0: 78.7% 10.9% 4.5% 2.4% 1.8% 1.1% 0.7%x264 [info]: ref B L1: 95.3% 4.7%x264 [info]: kb/s:3999.81encoded 74721 frames, 9.11 fps, 3999.81 kb/s

Скриншоты

-
[Профиль] [ЛС]
Кто просматривает тему:

Форум Тема Автор Размер
Author's Song (Авторская песня) Владимир Высоцкий - Я Первый Раз В Италии 1979 (Solyd Records 1999) [APE, image +.cue, lossless] К@питан 262 MB
BBC BBC: Первый в мире компьютер. Разгадка Антикитерского механизма / The World's First Computer: Decoding Antikythera Mechanism (Майкл Бекхэм / Michael Beckham) [2012 г., Докум... skorpionN 1.46 GB
Фильмы 2017 года Время первых (2017) WEB-DLRip | iTunes BOSS 1.46 GB
Документальные HD Интервью с Путиным / The Putin Interviews [01-04 из 04] (2017) HDTV 1080i | Первый канал ZeNArD 13.81 GB
Кино СССР Они были первыми (1956) DVDRip BOSS 1.46 GB
Фильмы (DVD 5/9) Первый после Бога (2005) DVD5 К@питан 4.37 GB
История древнего мира След на Земле (Первый след на пятом континенте) / First Footprints (Der erste Fußabdruck auf dem Fünften Kontinent) [серии 1,3 из 4] (Bentley Dean, Martin Butler) [2013 г., Документальный, истори... skorpionN 2.87 GB
Зарубежные сериалы Шерлок / Sherlock (Сезон 4, Серия 0-3 из 3) (Пол МакГиган, Ник Харран, Коки Гидройч) [2015-2017 , Детектив, криминал, мистика, экранизация , WEB-DLRip 1080p] [Первый канал , BaibaKo , English] +... Враг Нароода 23.08 GB
Показать сообщения:    

Текущее время: Сегодня 16:18

Часовой пояс: GMT



Вы не можете начинать темы
Вы не можете отвечать на сообщения
Вы не можете редактировать свои сообщения
Вы не можете удалять свои сообщения
Вы не можете голосовать в опросах
Вы не можете прикреплять файлы к сообщениям
Вы не можете скачивать файлы